<?xml version="1.0" standalone="no"?>
<!DOCTYPE svg PUBLIC "-//W3C//DTD SVG 1.1//EN" "http://www.w3.org/Graphics/SVG/1.1/DTD/svg11.dtd">
<svg xmlns="http://www.w3.org/2000/svg">
<metadata>
(c) 2012-2016 GitHub

When using the GitHub logos, be sure to follow the GitHub logo guidelines (https://github.com/logos)

Font License: SIL OFL 1.1 (http://scripts.sil.org/OFL)
Applies to all font files

Code License: MIT (http://choosealicense.com/licenses/mit/)
Applies to all other files
</metadata>
<defs>
<font id="octicons" horiz-adv-x="1024" >
<font-face font-family="octicons" font-weight="400" font-stretch="normal" units-per-em="1024" ascent="832" descent="-192" />
<missing-glyph d="M512 832C229.25 832 0 602.75 0 320c0-226.25 146.688-418.125 350.156-485.812 25.594-4.688 34.938 11.125 34.938 24.625 0 12.188-0.469 52.562-0.719 95.312C242-76.81200000000001 211.906 14.5 211.906 14.5c-23.312 59.125-56.844 74.875-56.844 74.875-46.531 31.75 3.53 31.125 3.53 31.125 51.406-3.562 78.47-52.75 78.47-52.75 45.688-78.25 119.875-55.625 149-42.5 4.654 33 17.904 55.625 32.5 68.375C304.906 106.56200000000001 185.344 150.5 185.344 346.688c0 55.938 19.969 101.562 52.656 137.406-5.219 13-22.844 65.094 5.062 135.562 0 0 42.938 13.75 140.812-52.5 40.812 11.406 84.594 17.031 128.125 17.219 43.5-0.188 87.312-5.875 128.188-17.281 97.688 66.312 140.688 52.5 140.688 52.5 28-70.531 10.375-122.562 5.125-135.5 32.812-35.844 52.625-81.469 52.625-137.406 0-196.688-119.75-240-233.812-252.688 18.438-15.875 34.75-47 34.75-94.75 0-68.438-0.688-123.625-0.688-140.5 0-13.625 9.312-29.562 35.25-24.562C877.438-98 1024 93.875 1024 320 1024 602.75 794.75 832 512 832z" horiz-adv-x="1024" />
<glyph glyph-name="alert" unicode="&#xf02d;" d="M1005.854 31.753000000000043l-438.286 767C556.173 818.694 534.967 831 512 831s-44.173-12.306-55.567-32.247l-438.286-767c-11.319-19.809-11.238-44.144 0.213-63.876C29.811-51.85500000000002 50.899-64 73.714-64h876.572c22.814 0 43.903 12.145 55.354 31.877S1017.173 11.94399999999996 1005.854 31.753000000000043zM576 64H448V192h128V64zM576 256H448V512h128V256z" horiz-adv-x="1024" />
<glyph glyph-name="arrow-down" unicode="&#xf03f;" d="M448 384V640H192v-256H0l320-384 320 384H448z" horiz-adv-x="640" />
<glyph glyph-name="arrow-left" unicode="&#xf040;" d="M384 448V640L0 320l384-320V192h256V448H384z" horiz-adv-x="640" />
<glyph glyph-name="arrow-right" unicode="&#xf03e;" d="M640 320L256 640v-192H0v-256h256v-192L640 320z" horiz-adv-x="640" />
<glyph glyph-name="arrow-small-down" unicode="&#xf0a0;" d="M256 384V512H128v-128H0l192-256 192 256H256z" horiz-adv-x="384" />
<glyph glyph-name="arrow-small-left" unicode="&#xf0a1;" d="M256 384V512L0 320l256-192V256h128V384H256z" horiz-adv-x="384" />
<glyph glyph-name="arrow-small-right" unicode="&#xf071;" d="M384 320L128 512v-128H0v-128h128v-128L384 320z" horiz-adv-x="384" />
<glyph glyph-name="arrow-small-up" unicode="&#xf09f;" d="M192 512L0 256h128v-128h128V256h128L192 512z" horiz-adv-x="384" />
<glyph glyph-name="arrow-up" unicode="&#xf03d;" d="M320 640L0 256h192v-256h256V256h192L320 640z" horiz-adv-x="640" />
<glyph glyph-name="beaker" unicode="&#xf0dd;" d="M920-102L704 384V640h64v64H192v-64h64v-256L40-102c-19-42 12-90 58-90h764c46 0 77 48 58 90zM240 192l80 192V640h320v-256l80-192H240z m272 128h64v-64h-64v64z m-64 64h-64v64h64v-64z m0 192h64v-64h-64v64z m0 192h-64V832h64v-64z" horiz-adv-x="1024" />
<glyph glyph-name="bell" unicode="&#xf0de;" d="M896 64v-64H0v64l47 37c49 49 52 163 76 283 49 241 261 320 261 320 0 35 29 64 64 64s64-29 64-64c0 0 217-79 266-320 24-120 27-234 76-283l42-37z m-448-256c71 0 128 57 128 128H320c0-71 57-128 128-128z" horiz-adv-x="896" />
<glyph glyph-name="bold" unicode="&#xf0e2;" d="M0 704h245c159 0 275-48 275-189 0-73-40-143-107-167v-4c85-19 147-79 147-183 0-153-126-225-295-225H0V704z m234-317c107 0 152 42 152 108 0 75-50 103-150 103H136v-211h98z m17-345c113 0 176 41 176 127 0 81-61 116-176 116H136v-243h115z" horiz-adv-x="640" />
<glyph glyph-name="book" unicode="&#xf007;" d="M128 512h256v-64H128v64z m0-192h256v64H128v-64z m0-128h256v64H128v-64z m704 320H576v-64h256v64z m0-128H576v-64h256v64z m0-128H576v-64h256v64z m128 384v-576c0-35-29-64-64-64H544l-64-64-64 64H64c-35 0-64 29-64 64V640c0 35 29 64 64 64h352l64-64 64 64h352c35 0 64-29 64-64z m-512-32l-32 32H64v-576h384V608z m448 32H544l-32-32v-544h384V640z" horiz-adv-x="1024" />
<glyph glyph-name="bookmark" unicode="&#xf07b;" d="M576 832H64C17 832 0 815 0 768v-960l320 198 320-198V768c0 47-17 64-64 64z m-50-272l-119-87 46-138c4-14-1-18-13-11l-120 86-120-86c-12-7-16-3-13 11l46 138-119 87c-11 10-9 15 6 15l147 2 45 138h16l45-138 147-2c15 0 17-5 6-15z" horiz-adv-x="640" />
<glyph glyph-name="briefcase" unicode="&#xf0d3;" d="M576 576v64c0 35-29 64-64 64H384c-35 0-64-29-64-64v-64H64c-35 0-64-29-64-64v-512c0-35 29-64 64-64h768c35 0 64 29 64 64V512c0 35-29 64-64 64H576z m-192 64h128v-64H384v64z m448-384H512v-64H384v64H64V512h64v-192h640V512h64v-256z" horiz-adv-x="896" />
<glyph glyph-name="broadcast" unicode="&#xf048;" d="M576 256h-64c35 0 64 29 64 64v64c0 35-29 64-64 64h-64c-35 0-64-29-64-64v-64c0-35 29-64 64-64h-64c-35 0-64-29-64-64v-128h64v-192c0-35 29-64 64-64h64c35 0 64 29 64 64V64h64V192c0 35-29 64-64 64zM448 384h64v-64h-64v64z m128-256h-64v-256h-64V128h-64v64h192v-64z m134 224c0 127-103 230-230 230S250 479 250 352c0-18 2-35 6-52v-127c-39 49-64 111-64 179 0 159 129 288 288 288s288-129 288-288c0-68-25-130-64-179V300c4 17 6 34 6 52z m250 0c0-184-104-344-256-424v67c119 74 198 206 198 357 0 233-189 422-422 422S58 585 58 352c0-151 79-283 198-357v-67C104 8 0 168 0 352 0 617 215 832 480 832s480-215 480-480z" horiz-adv-x="1024" />
<glyph glyph-name="browser" unicode="&#xf0c5;" d="M320 640h64v-64h-64V640zM192 640h64v-64h-64V640zM64 640h64v-64H64V640zM832 0H64V512h768V0zM832 576H448v64h384V576zM896 640c0 35.35-28.65 64-64 64H64c-35.35 0-64-28.65-64-64v-640c0-35.35 28.65-64 64-64h768c35.35 0 64 28.65 64 64V640z" horiz-adv-x="896" />
<glyph glyph-name="bug" unicode="&#xf091;" d="M704 192h192v64H704v64l203 66-22 60-181-62v64c0 35-29 64-64 64v64c0 31-23 56-53 62l66 66h115V768H627L499 640h-38L333 768H192v-64h115l66-66c-30-6-53-31-53-62v-64c-35 0-64-29-64-64v-64L75 446l-22-60 203-66v-64H64v-64h192v-64L53 62l22-60 181 62v-64c0-35 29-64 64-64h64l64 64V448h64v-448l64-64h64c35 0 64 29 64 64v64l181-62 22 60-203 66v64zM576 512H384v64h192v-64z" horiz-adv-x="1024" />
<glyph glyph-name="calendar" unicode="&#xf068;" d="M768 704h-64v-96c0-18-14-32-32-32H544c-18 0-32 14-32 32v96H320v-96c0-18-14-32-32-32H160c-18 0-32 14-32 32v96H64c-35 0-64-29-64-64v-704c0-35 29-64 64-64h704c35 0 64 29 64 64V640c0 35-29 64-64 64z m0-768H64V512h704v-576zM256 640h-64V768h64v-128z m384 0h-64V768h64v-128zM320 384h-64v64h64v-64z m128 0h-64v64h64v-64z m128 0h-64v64h64v-64z m128 0h-64v64h64v-64zM192 256h-64v64h64v-64z m128 0h-64v64h64v-64z m128 0h-64v64h64v-64z m128 0h-64v64h64v-64z m128 0h-64v64h64v-64zM192 128h-64v64h64v-64z m128 0h-64v64h64v-64z m128 0h-64v64h64v-64z m128 0h-64v64h64v-64z m128 0h-64v64h64v-64zM192 0h-64v64h64v-64z m128 0h-64v64h64v-64z m128 0h-64v64h64v-64z m128 0h-64v64h64v-64z" horiz-adv-x="896" />
<glyph glyph-name="check" unicode="&#xf03a;" d="M768 512L256 0 0 256l96 96 160-160 416 416 96-96z" horiz-adv-x="768" />
<glyph glyph-name="checklist" unicode="&#xf076;" d="M1024 288L640-96 448 96l96 96 96-96 288 288 96-96zM365 51l51-51H128c-35 0-64 29-64 64V640c0 35 29 64 64 64h448c35 0 64-29 64-64v-416l-51 51c-25 25-66 25-91 0L365 141c-25-25-25-65 0-90zM256 576h320v64H256v-64z m0-128h320v64H256v-64z m0-128h192v64H256v-64z m-64-64h-64v-64h64v64z m0 128h-64v-64h64v64z m0 128h-64v-64h64v64z m0 128h-64v-64h64v64z" horiz-adv-x="1024" />
<glyph glyph-name="chevron-down" unicode="&#xf0a3;" d="M320 128L0 448l96 96 224-240 224 240 96-96-320-320z" horiz-adv-x="640" />
<glyph glyph-name="chevron-left" unicode="&#xf0a4;" d="M352 640l96-96-240-224 240-224-96-96L32 320l320 320z" horiz-adv-x="512" />
<glyph glyph-name="chevron-right" unicode="&#xf078;" d="M480 320L160 0l-96 96 240 224L64 544l96 96 320-320z" horiz-adv-x="512" />
<glyph glyph-name="chevron-up" unicode="&#xf0a2;" d="M640 256l-96-96-224 240L96 160 0 256l320 320 320-320z" horiz-adv-x="640" />
<glyph glyph-name="circle-slash" unicode="&#xf084;" d="M448 768C201 768 0 567 0 320s201-448 448-448 448 201 448 448S695 768 448 768z m0-83c83 0 160-28 222-75L158 98c-47 62-75 139-75 222 0 201 164 365 365 365z m0-730c-83 0-160 28-222 75l512 512c47-62 75-139 75-222 0-201-164-365-365-365z" horiz-adv-x="896" />
<glyph glyph-name="circuit-board" unicode="&#xf0d6;" d="M192 512c0 35 29 64 64 64s64-29 64-64-29-64-64-64-64 29-64 64z m512 0c0 35-29 64-64 64s-64-29-64-64 29-64 64-64 64 29 64 64z m0-384c0 35-29 64-64 64s-64-29-64-64 29-64 64-64 64 29 64 64zM832 768H320v-139c23-12 41-30 53-53h150c27 50 85 82 150 67 48-12 87-51 98-99 20-88-46-166-131-166-51 0-95 28-117 70H373c-27-51-85-82-150-66-47 11-86 50-97 97-16 65 15 123 66 150V768H64C29 768 0 739 0 704v-768c0-35 29-64 64-64l320 320h139c27 50 85 82 150 67 48-12 87-51 98-99 20-88-46-166-131-166-51 0-95 28-117 70h-75L256-128h576c35 0 64 29 64 64V704c0 35-29 64-64 64z" horiz-adv-x="896" />
<glyph glyph-name="clippy" unicode="&#xf035;" d="M128 64h256v-64H128v64z m320 384H128v-64h320v64z m128-192V384L384 192l192-192V128h320V256H576z m-288 64H128v-64h160v64zM128 128h160v64H128v-64z m576-64h64v-128c-1-18-7-33-19-45s-27-18-45-19H64c-35 0-64 29-64 64V640c0 35 29 64 64 64h192C256 775 313 832 384 832s128-57 128-128h192c35 0 64-29 64-64v-320h-64V512H64v-576h640V64zM128 576h512c0 35-29 64-64 64h-64c-35 0-64 29-64 64s-29 64-64 64-64-29-64-64-29-64-64-64h-64c-35 0-64-29-64-64z" horiz-adv-x="896" />
<glyph glyph-name="clock" unicode="&#xf046;" d="M512 320h192v-128H448c-35 0-64 29-64 64V576h128v-256z m-64 365c201 0 365-164 365-365S649-45 448-45 83 119 83 320s164 365 365 365m0 83C201 768 0 567 0 320s201-448 448-448 448 201 448 448S695 768 448 768z" horiz-adv-x="896" />
<glyph glyph-name="cloud-download" unicode="&#xf00b;" d="M576 0h128l-192-192-192 192h128V320h128v-320z m192 512c0 28-58 192-288 192-155 0-288-123-288-256C65 448 0 351 0 256c0-98 64-192 192-192 28 0 170 0 192 0v83H192C88 147 83 238 83 256c0 11 3 109 109 109h83v83c0 89 100 173 205 173 163 0 200-99 205-115v-77h83c52 0 173-14 173-141 0-134-144-141-173-141H640v-83c24 0 127 0 128 0 133 0 256 74 256 224 0 156-123 224-256 224z" horiz-adv-x="1024" />
<glyph glyph-name="cloud-upload" unicode="&#xf00c;" d="M448 256H320l192 192 192-192H576v-320H448V256z m320 256c0 28-58 192-288 192-155 0-288-123-288-256C65 448 0 351 0 256c0-98 64-192 192-192 28 0 170 0 192 0v83H192C88 147 83 238 83 256c0 11 3 109 109 109h83v83c0 89 100 173 205 173 163 0 200-99 205-115v-77h83c52 0 173-14 173-141 0-134-144-141-173-141H640v-83c24 0 127 0 128 0 133 0 256 74 256 224 0 156-123 224-256 224z" horiz-adv-x="1024" />
<glyph glyph-name="code" unicode="&#xf05f;" d="M608 640l-96-96 224-224L512 96l96-96 288 320L608 640zM288 640L0 320l288-320 96 96L160 320l224 224L288 640z" horiz-adv-x="896" />
<glyph glyph-name="comment" unicode="&#xf02b;" d="M832 704H64c-35 0-64-29-64-64v-512c0-35 29-64 64-64h128v-224l224 224h416c35 0 64 29 64 64V640c0 35-29 64-64 64z m0-576H384L256 0V128H64V640h768v-512z" horiz-adv-x="896" />
<glyph glyph-name="comment-discussion" unicode="&#xf04f;" d="M960 704H384c-35 0-64-29-64-64v-128H64c-35 0-64-29-64-64v-384c0-35 29-64 64-64h64v-192l192 192h256c35 0 64 29 64 64V192h64l192-192V192h64c35 0 64 29 64 64V640c0 35-29 64-64 64zM576 64H288l-96-96v96H64V448h256v-192c0-35 29-64 64-64h192v-128z m384 192H832v-96l-96 96H384V640h576v-384z" horiz-adv-x="1024" />
<glyph glyph-name="credit-card" unicode="&#xf045;" d="M768 256H128v64h640v-64z m256 384v-576c0-35-29-64-64-64H64c-35 0-64 29-64 64V640c0 35 29 64 64 64h896c35 0 64-29 64-64z m-64-192H64v-384h896V448z m0 192H64v-64h896v64zM384 192H128v-64h256v64z" horiz-adv-x="1024" />
<glyph glyph-name="dash" unicode="&#xf0ca;" d="M0 384v-128h512V384H0z" horiz-adv-x="512" />
<glyph glyph-name="dashboard" unicode="&#xf07d;" d="M512 512h-64v64h64v-64z m256-192h-64v-64h64v64zM320 512h-64v-64h64v64z m-64-192h-64v-64h64v64z m704 352l-32 32-416-320c-4 1-64 0-64 0-35 0-64-29-64-64v-64c0-35 29-64 64-64h64c35 0 64 29 64 64v59l384 357zM858 410c12-39 19-80 19-122 0-219-178-397-397-397S83 69 83 288s178 397 397 397c77 0 148-22 209-60l60 60c-76 52-169 83-269 83C215 768 0 553 0 288s215-480 480-480 480 215 480 480c0 66-13 129-38 186l-64-64z" horiz-adv-x="1024" />
<glyph glyph-name="database" unicode="&#xf096;" d="M384-128C171.969-128 0-70.625 0 0c0 38.625 0 80.875 0 128 0 11.125 5.562 21.688 13.562 32C56.375 104.875 205.25 64 384 64s327.625 40.875 370.438 96c8-10.312 13.562-20.875 13.562-32 0-37.062 0-76.375 0-128C768-70.625 596-128 384-128zM384 128C171.969 128 0 185.375 0 256c0 38.656 0 80.844 0 128 0 6.781 2.562 13.375 6 19.906l0 0C7.938 408 10.5 412.031 13.562 416 56.375 360.906 205.25 320 384 320s327.625 40.906 370.438 96c3.062-3.969 5.625-8 7.562-12.094l0 0c3.438-6.531 6-13.125 6-19.906 0-37.062 0-76.344 0-128C768 185.375 596 128 384 128zM384 384C171.969 384 0 441.344 0 512c0 20.219 0 41.594 0 64 0 20.344 0 41.469 0 64C0 710.656 171.969 768 384 768c212 0 384-57.344 384-128 0-19.969 0-41.156 0-64 0-19.594 0-40.25 0-64C768 441.344 596 384 384 384zM384 704c-141.375 0-256-28.594-256-64s114.625-64 256-64 256 28.594 256 64S525.375 704 384 704z" horiz-adv-x="768" />
<glyph glyph-name="desktop-download" unicode="&#xf0dc;" d="M256 448h192V832h128v-384h192L512 192 256 448z m704 256H704v-64h256v-512H64V640h256v64H64c-35 0-64-29-64-64v-576c0-35 29-64 64-64h342c-16-39-55-89-150-128h512c-95 39-134 89-150 128h342c35 0 64 29 64 64V640c0 35-29 64-64 64z" horiz-adv-x="1024" />
<glyph glyph-name="device-camera" unicode="&#xf056;" d="M960 640H448c0 35-29 64-64 64H128c-35 0-64-29-64-64-35 0-64-29-64-64v-576c0-35 29-64 64-64h896c35 0 64 29 64 64V576c0 35-29 64-64 64zM384 512H128v64h256v-64z m288-448c-124 0-224 100-224 224s100 224 224 224 224-100 224-224-100-224-224-224z m160 224c0-88-72-160-160-160s-160 72-160 160 72 160 160 160 160-72 160-160z" horiz-adv-x="1024" />
<glyph glyph-name="device-camera-video" unicode="&#xf057;" d="M973 634L640 402V576c0 35-29 64-64 64H64c-35 0-64-29-64-64v-576c0-35 29-64 64-64h512c35 0 64 29 64 64V174l333-232c21-15 51 0 51 26V608c0 26-30 41-51 26z" horiz-adv-x="1024" />
<glyph glyph-name="device-desktop" unicode="&#xf27c;" d="M960 704H64c-35 0-64-29-64-64v-576c0-35 29-64 64-64h342c-16-39-55-89-150-128h512c-95 39-134 89-150 128h342c35 0 64 29 64 64V640c0 35-29 64-64 64z m0-576H64V640h896v-512z" horiz-adv-x="1024" />
<glyph glyph-name="device-mobile" unicode="&#xf038;" d="M576 832H64C29 832 0 803 0 768v-896c0-35 29-64 64-64h512c35 0 64 29 64 64V768c0 35-29 64-64 64zM320-147c-46 0-83 37-83 83s37 83 83 83 83-37 83-83-37-83-83-83z m256 211H64V704h512v-640z" horiz-adv-x="640" />
<glyph glyph-name="diff" unicode="&#xf04d;" d="M384 384h128v-64H384v-128h-64V320H192v64h128V512h64v-128zM192 0h320v64H192v-64z m288 704l224-224v-608c0-35-29-64-64-64H64c-35 0-64 29-64 64V640c0 35 29 64 64 64h416z m160-256L448 640H64v-768h576V448zM544 832S192 832 192 832v-64h320l256-256v-512h64V544L544 832z" horiz-adv-x="896" />
<glyph glyph-name="diff-added" unicode="&#xf06b;" d="M832 768H64C29 768 0 739 0 704v-768c0-35 29-64 64-64h768c35 0 64 29 64 64V704c0 35-29 64-64 64z m0-832H64V704h768v-768zM384 256H192V384h192V576h128v-192h192v-128H512v-192H384V256z" horiz-adv-x="896" />
<glyph glyph-name="diff-ignored" unicode="&#xf099;" d="M832 768H64C29 768 0 739 0 704v-768c0-35 29-64 64-64h768c35 0 64 29 64 64V704c0 35-29 64-64 64z m0-832H64V704h768v-768zM288 64h-96v96l416 416h96v-96L288 64z" horiz-adv-x="896" />
<glyph glyph-name="diff-modified" unicode="&#xf06d;" d="M832 768H64C29 768 0 739 0 704v-768c0-35 29-64 64-64h768c35 0 64 29 64 64V704c0 35-29 64-64 64z m0-832H64V704h768v-768zM256 320c0 106 86 192 192 192s192-86 192-192-86-192-192-192-192 86-192 192z" horiz-adv-x="896" />
<glyph glyph-name="diff-removed" unicode="&#xf06c;" d="M832 768H64C29 768 0 739 0 704v-768c0-35 29-64 64-64h768c35 0 64 29 64 64V704c0 35-29 64-64 64z m0-832H64V704h768v-768zM704 256H192V384h512v-128z" horiz-adv-x="896" />
<glyph glyph-name="diff-renamed" unicode="&#xf06e;" d="M384 256H192V384h192V576l320-256-320-256V256z m512 448v-768c0-35-29-64-64-64H64c-35 0-64 29-64 64V704c0 35 29 64 64 64h768c35 0 64-29 64-64z m-64 0H64v-768h768V704z" horiz-adv-x="896" />
<glyph glyph-name="ellipsis" unicode="&#xf09a;" d="M704 512H64c-35 0-64-29-64-64v-256c0-35 29-64 64-64h640c35 0 64 29 64 64V448c0 35-29 64-64 64zM256 256H128V384h128v-128z m192 0H320V384h128v-128z m192 0H512V384h128v-128z" horiz-adv-x="768" />
<glyph glyph-name="eye" unicode="&#xf04e;" d="M516 704C192 704 0 320 0 320s192-384 516-384c316 0 508 384 508 384S832 704 516 704z m-4-640c-141 0-256 114-256 256 0 141 115 256 256 256 142 0 256-115 256-256 0-142-114-256-256-256z m128 256c0-71-57-128-128-128s-128 57-128 128 57 128 128 128 128-57 128-128z" horiz-adv-x="1024" />
<glyph glyph-name="file-binary" unicode="&#xf094;" d="M256 64h64v-64H128v64h64V192h-64v64h128v-192z m512 480v-608c0-35-29-64-64-64H64c-35 0-64 29-64 64V704c0 35 29 64 64 64h480l224-224z m-64-32L512 704H64v-768h640V512z m-192 64H384v-64h64v-128h-64v-64h192v64h-64V576z m-384 0h192v-256H128V576z m64-192h64V512h-64v-128z m192-128h192v-256H384V256z m64-192h64V192h-64v-128z" horiz-adv-x="768" />
<glyph glyph-name="file-code" unicode="&#xf010;" d="M544 768H64C29 768 0 739 0 704v-768c0-35 29-64 64-64h640c35 0 64 29 64 64V544L544 768z m160-832H64V704h448l192-192v-576zM320 385l-96-97 96-96-32-64-160 160 160 160 32-63z m160 63l160-160-160-160-32 63 96 97-96 96 32 64z" horiz-adv-x="768" />
<glyph glyph-name="file-directory" unicode="&#xf016;" d="M832 576H448v64c0 42-20 64-64 64H64c-35 0-64-29-64-64v-640c0-35 29-64 64-64h768c35 0 64 29 64 64V512c0 35-29 64-64 64z m-448 0H64v64h320v-64z" horiz-adv-x="896" />
<glyph glyph-name="file-media" unicode="&#xf012;" d="M384 512h128v-128H384V512z m384 32v-608c0-35-29-64-64-64H64c-35 0-64 29-64 64V704c0 35 29 64 64 64h480l224-224z m-64-32L512 704H64v-704l192 320 128-256 128 128 192-192V512z" horiz-adv-x="768" />
<glyph glyph-name="file-pdf" unicode="&#xf014;" d="M544 768H64C29 768 0 739 0 704v-768c0-35 29-64 64-64h640c35 0 64 29 64 64V544L544 768zM64 704h256c-7-2-13-6-20-13-6-6-11-16-15-30-7-25-9-57-6-94s11-75 22-115c-15-47-39-103-71-170s-51-106-58-118c-9-3-23-9-44-19-21-9-42-23-64-41V704z m283-307c29-72 54-117 75-134s41-29 60-34c-41-6-79-13-116-21-36-8-75-21-116-38 1 1 14 28 39 80s45 101 58 147z m357-461H96c-4 0-8 1-11 2 13 4 29 13 47 28 29 24 67 74 114 152 20 8 37 15 52 20l27 9c29 8 60 15 92 21 32 5 64 10 95 13 29-14 58-25 89-34 31-8 58-13 79-15 9 0 17 1 24 2v-198z m0 311c-12 7-26 13-41 18-15 4-31 6-48 7-25 0-51-2-79-5-15 4-36 18-63 41s-55 73-84 149c8 53 12 95 13 126s1 47 0 48c3 26-2 45-13 56s-24 17-39 17h162l192-192v-265z" horiz-adv-x="768" />
<glyph glyph-name="file-submodule" unicode="&#xf017;" d="M640 384H256v-448h576c35 0 64 29 64 64V320H640v64z m-64-128H320v64h256v-64z m256 320H448v64c0 42-20 64-64 64H64c-35 0-64-29-64-64v-640c0-35 29-64 64-64h128V384c0 35 29 64 64 64h384c35 0 64-29 64-64h192V512c0 35-29 64-64 64z m-448 0H64v64h320v-64z" horiz-adv-x="896" />
<glyph glyph-name="file-symlink-directory" unicode="&#xf0b1;" d="M832 576H448v64c0 42-20 64-64 64H64c-35 0-64-29-64-64v-640c0-35 29-64 64-64h768c35 0 64 29 64 64V512c0 35-29 64-64 64zM64 640h320v-64H64v64z m384-576V192c-63 1-118-14-163-45s-76-80-93-147c1 105 25 184 72 239 47 54 108 81 184 81V448l256-192-256-192z" horiz-adv-x="896" />
<glyph glyph-name="file-symlink-file" unicode="&#xf0b0;" d="M544 768H64C29 768 0 739 0 704v-768c0-35 29-64 64-64h640c35 0 64 29 64 64V544L544 768z m160-832H64V704h448l192-192v-576zM384 544l256-192-256-192V288c-63 1-118-14-163-45s-76-80-93-147c1 105 25 184 72 239 47 54 108 81 184 81V544z" horiz-adv-x="768" />
<glyph glyph-name="file-text" unicode="&#xf011;" d="M384 512H128v64h256v-64zM128 320h448v64H128v-64z m0-128h448v64H128v-64z m0-128h448v64H128v-64z m640 480v-608c0-35-29-64-64-64H64c-35 0-64 29-64 64V704c0 35 29 64 64 64h480l224-224z m-64-32L512 704H64v-768h640V512z" horiz-adv-x="768" />
<glyph glyph-name="file-zip" unicode="&#xf013;" d="M544 768H64C29 768 0 739 0 704v-768c0-35 29-64 64-64h640c35 0 64 29 64 64V544L544 768z m160-832H64V704h192v-64h64v64h192l192-192v-576zM320 576v64h64v-64h-64z m-64 0h64v-64h-64v64z m64-128v64h64v-64h-64z m-64 0h64v-64h-64v64z m64-128v64h64v-64h-64z m-64-82c-38-22-64-63-64-110v-64h256v64c0 71-57 128-128 128v64h-64v-82z m128-46v-64H256v64h128z" horiz-adv-x="768" />
<glyph glyph-name="flame" unicode="&#xf0d2;" d="M323 812c52-139 26-216-33-276-63-67-163-117-232-215-93-131-109-418 226-493-141 74-171 289-19 423-39-130 34-213 124-183 89 30 147-34 145-107-1-50-20-92-72-116 219 38 306 219 306 356 0 182-162 206-80 359-97-8-130-72-121-176 6-69-65-115-119-85-43 26-42 76-4 114 80 79 112 262-120 398l-1 1z" horiz-adv-x="768" />
<glyph glyph-name="fold" unicode="&#xf0cc;" d="M448 256l192-192H512v-192H384V64H256l192 192z m192 384H512V832H384v-192H256l192-192 192 192z m256-128c0 35-29 64-64 64H672l-64-64h192L672 384H224L96 512h192l-64 64H64c-35 0-64-29-64-64l160-160L0 192c0-35 29-64 64-64h160l64 64H96l128 128h448l128-128H608l64-64h160c35 0 64 29 64 64L736 352l160 160z" horiz-adv-x="896" />
<glyph glyph-name="gear" unicode="&#xf02f;" d="M896 271V373l-124 41-29 70 56 118-72 72-116-58-70 29-44 123H395l-40-124-71-29-118 56-72-72 58-116-29-70L0 369v-102l124-41 29-70-56-118 72-72 116 58 70-29 44-123h102l40 124 71 29 118-56 72 72-59 116 30 70 123 44zM448 128c-106 0-192 86-192 192s86 192 192 192 192-86 192-192-86-192-192-192z" horiz-adv-x="896" />
<glyph glyph-name="gift" unicode="&#xf042;" d="M832 576h-88c12 21 21 43 23 58 4 43-7 78-33 103-23 24-52 31-87 31-3 0-5 0-7 0-34-1-71-16-98-37s-47-46-62-77c-15 31-35 56-62 77s-64 37-98 37c-1 0-2 0-2 0-36 0-68-6-92-31-26-25-37-60-33-103 2-15 11-37 23-58h-88c-35 0-64-29-64-64v-192h64v-320c0-35 29-64 64-64h576c35 0 64 29 64 64V320h64V512c0 35-29 64-64 64z m-306 56c11 23 27 43 48 59 19 15 46 25 67 26h6c29 0 42-7 51-16s21-25 19-61c-3-12-16-39-32-64H500l26 56z m-264 69c8 8 20 16 58 16 20 0 46-11 66-26 21-16 37-35 48-59l27-56H275c-16 25-29 52-32 64-2 36 10 52 19 61z m186-701H192V320h256v-320z m0 384H128V512h320v-128z m320-384H512V320h256v-320z m64 384H512V512h320v-128z" horiz-adv-x="896" />
<glyph glyph-name="gist" unicode="&#xf00e;" d="M480 512l160-160-160-160-48 48 112 112-112 112 48 48z m-192 0L128 352l160-160 48 48-112 112 112 112-48 48zM0 0V704c0 35 29 64 64 64h640c35 0 64-29 64-64v-704c0-35-29-64-64-64H64c-35 0-64 29-64 64z m64 0h640V704H64v-704z" horiz-adv-x="768" />
<glyph glyph-name="gist-secret" unicode="&#xf08c;" d="M512 160l64-224H320l64 224-48 96h224l-48-96z m128 288H256l-128-64h640l-128 64z m-64 256l-128-64-128 64-64-192h384l-64 192z m258-496l-194 48 64-128-128-192h206c29 0 55 20 62 48l36 146c9 34-12 69-46 78z m-578 48L62 208c-34-9-55-44-46-78l36-146c7-28 33-48 62-48h206L192 128l64 128z" horiz-adv-x="896" />
<glyph glyph-name="git-branch" unicode="&#xf020;" d="M640 512c0 71-57 128-128 128s-128-57-128-128c0-47 26-88 64-110v-19c-1-33-15-63-40-88s-55-39-88-40c-53-1-95-10-128-29V530c38 22 64 63 64 110 0 71-57 128-128 128S0 711 0 640c0-47 26-88 64-110v-420C26 88 0 47 0 0c0-71 57-128 128-128s128 57 128 128c0 34-13 64-34 87 6 4 31 26 38 30 16 7 36 11 60 11 67 3 125 29 176 80s77 127 80 193h-1c39 23 65 64 65 111zM128 717c42 0 77-35 77-77s-35-77-77-77-77 35-77 77 35 77 77 77z m0-794c-42 0-77 35-77 77s35 77 77 77 77-35 77-77-35-77-77-77z m384 512c-42 0-77 35-77 77s35 77 77 77 77-35 77-77-35-77-77-77z" horiz-adv-x="640" />
<glyph glyph-name="git-commit" unicode="&#xf01f;" d="M695 384c-29 110-128 192-247 192s-218-82-247-192H0v-128h201c29-110 128-192 247-192s218 82 247 192h201V384H695zM448 179c-78 0-141 63-141 141s63 141 141 141 141-63 141-141-63-141-141-141z" horiz-adv-x="896" />
<glyph glyph-name="git-compare" unicode="&#xf0ac;" d="M320 64h-64c-17 1-31 7-44 20s-19 27-20 44V530c38 22 64 63 64 110 0 71-57 128-128 128S0 711 0 640c0-47 26-88 64-110 0-111 0-402 0-402 2-50 22-94 60-132s82-58 132-60c0 0 65 0 64 0v-128l192 192-192 192v-128zM128 717c42 0 77-35 77-77s-35-77-77-77-77 35-77 77 35 77 77 77z m704-607c0 111 0 402 0 402-2 50-22 94-60 132s-82 58-132 60c0 0-65 0-64 0V832L384 640l192-192V576h64c17-1 31-7 44-20s19-27 20-44v-402c-38-22-64-63-64-110 0-71 57-128 128-128s128 57 128 128c0 47-26 88-64 110z m-64-187c-42 0-77 35-77 77s35 77 77 77 77-35 77-77-35-77-77-77z" horiz-adv-x="896" />
<glyph glyph-name="git-merge" unicode="&#xf023;" d="M640 384c-47 0-88-26-111-65v1c-67 1-145 23-200 65-48 37-96 103-121 156 29 23 48 59 48 99 0 71-57 128-128 128S0 711 0 640c0-47 26-88 64-110v-420C26 88 0 47 0 0c0-71 57-128 128-128s128 57 128 128c0 47-26 88-64 110V341c43-45 92-81 147-108s130-40 190-41v1c23-39 64-65 111-65 71 0 128 57 128 128s-57 128-128 128zM205 0c0-42-35-77-77-77s-77 35-77 77 35 77 77 77 77-35 77-77z m-77 563c-42 0-77 35-77 77s35 77 77 77 77-35 77-77-35-77-77-77z m512-384c-42 0-77 35-77 77s35 77 77 77 77-35 77-77-35-77-77-77z" horiz-adv-x="768" />
<glyph glyph-name="git-pull-request" unicode="&#xf009;" d="M704 110c0 111 0 402 0 402-2 50-22 94-60 132s-82 58-132 60c0 0-65 0-64 0V832L256 640l192-192V576h64c17-1 31-7 44-20s19-27 20-44v-402c-38-22-64-63-64-110 0-71 57-128 128-128s128 57 128 128c0 47-26 88-64 110z m-64-187c-42 0-77 35-77 77s35 77 77 77 77-35 77-77-35-77-77-77zM256 640c0 71-57 128-128 128S0 711 0 640c0-47 26-88 64-110 0-99 0-356 0-420-38-22-64-63-64-110 0-71 57-128 128-128s128 57 128 128c0 47-26 88-64 110V530c38 22 64 63 64 110z m-51-640c0-42-35-77-77-77s-77 35-77 77 35 77 77 77 77-35 77-77z m-77 563c-42 0-77 35-77 77s35 77 77 77 77-35 77-77-35-77-77-77z" horiz-adv-x="768" />
<glyph glyph-name="globe" unicode="&#xf0b6;" d="M448 768C201 768 0 567 0 320s201-448 448-448c31 0 60 3 88 9-11 5-13 47-1 70 12 26 52 93 13 115s-28 32-52 58-14 30-16 37c-5 22 23 57 25 60 1 4 1 17 0 21 0 5-17 14-22 15-4 0-7-7-13-8s-32 16-38 21-9 15-17 22c-8 8-9 2-21 7s-51 20-82 31c-31 12-33 30-33 42-1 13-19 30-27 43-9 13-10 30-13 26s16-50 13-52c-3-1-10 13-19 24-9 12 9 6-19 61s9 83 11 112 24-11 12 8 0 57-9 71c-8 14-56-16-56-16 1 14 44 37 74 59s50 4 74-3c25-8 26-6 18 3-8 8 4 11 23 8 18-3 24-26 53-23 30 2 3-6 7-14s-4-7-24-19c-19-13 1-14 35-39s24 16 20 35 25 4 25 4c21-14 17-1 32-5s58-41 58-41c-53-28-20-31-11-38s-18-19-18-19c-11 11-12-1-19-5s-1-14-1-14c-36-6-28-44-27-53 0-9-24-23-30-37-6-13 16-41 4-42-12-2-22 42-84 26-19-5-60-26-38-69 23-44 59 12 71 6s-4-34-1-35 34-1 36-39 49-34 59-35c11 0 45 28 49 29 4 2 24 18 66-6 42-23 63-20 77-30s5-30 18-37 68 2 82-20-56-134-78-146-31-41-54-59-52-41-81-58c-26-15-30-42-42-51 201 45 351 224 351 438 0 247-201 448-448 448z m105-420c-6-2-18-14-50 5-31 19-52 15-55 18 0 0-3 7 11 9 28 3 63-26 71-26s12 8 26 3 3-8-3-9zM406 723c-3 2 2 5 6 9 2 2 1 7 3 9 7 7 39 16 33-2-7-17-37-19-42-16z m79-57c-12 1-37 3-33 9 19 18-6 24-22 24-16 1-22 10-14 12s39-1 45-5c5-4 33-16 35-24 1-8 0-16-11-16z m94 3c-9-6-53 26-61 33-36 31-57 20-64 26s-5 12 7 22 44-4 64-6c19-2 42-17 42-35 1-16 21-32 12-40z" horiz-adv-x="896" />
<glyph glyph-name="graph" unicode="&#xf043;" d="M1024-64v-64H0V832h64v-896h960z m-704 64H192V320h128v-320z m256 0H448V640h128v-640z m256 0H704V448h128v-448z" horiz-adv-x="1024" />
<glyph glyph-name="heart" unicode="&#x2665;" d="M717 576c-33 40-80 61-141 64-62 0-108-27-141-64s-50-59-51-64c-1 5-18 27-51 64s-75 64-141 64c-61-3-108-24-141-64-33-39-50-82-51-128 0-33 6-97 43-171s150-188 341-341c191 153 305 267 342 341s42 139 42 171c-1 46-18 89-51 129z" horiz-adv-x="768" />
<glyph glyph-name="history" unicode="&#xf07e;" d="M512 0H384V448h320v-128H512v-320zM448 768c-140 0-264-65-346-166L0 704v-256h256l-96 96c67 85 171 141 288 141 201 0 365-164 365-365S649-45 448-45 83 119 83 320c0 22 2 43 6 64H5c-3-21-5-42-5-64 0-247 201-448 448-448s448 201 448 448S695 768 448 768z" horiz-adv-x="896" />
<glyph glyph-name="home" unicode="&#xf08d;" d="M1024 256L832 448V704H704v-128L512 768 0 256h128l64-320c0-35 29-64 64-64h512c35 0 64 29 64 64l64 320h128zM768-64H576V192H448v-256H256l-76 404 332 332 332-332-76-404z" horiz-adv-x="1024" />
<glyph glyph-name="horizontal-rule" unicode="&#xf070;" d="M64 384h128v-128h64V640h-64v-192H64V640H0v-384h64V384z m576-128V384h-64v-128h64z m0 192V576h-64v-128h64z m-192 0V576h128v64H384v-384h64V384h128v64H448zM0 0h640V128H0v-128z" horiz-adv-x="640" />
<glyph glyph-name="hubot" unicode="&#xf09d;" d="M192 448c-35 0-64-29-64-64v-128c0-35 29-64 64-64h512c35 0 64 29 64 64V384c0 35-29 64-64 64H192z m512-112l-80-80h-96l-80 80-80-80h-96l-80 80v48h48l80-80 80 80h96l80-80 80 80h48v-48zM320 128h256v-64H320v64z m128 576C201 704 0 518 0 288v-288c0-35 29-64 64-64h768c35 0 64 29 64 64V288c0 230-201 416-448 416z m384-704H64V288c0 198 169 358 384 358s384-160 384-358v-288z" horiz-adv-x="896" />
<glyph glyph-name="inbox" unicode="&#xf0cf;" d="M896 256l-72 457c-5 31-32 55-64 55H136c-32 0-59-24-64-55L0 256v-320c0-35 29-64 64-64h768c35 0 64 29 64 64V256z m-210-35l-28-57c-11-22-33-36-58-36H295c-24 0-46 14-57 35l-28 58c-11 21-33 35-57 35H64l64 448h640l64-448h-88c-25 0-47-14-58-35z" horiz-adv-x="896" />
<glyph glyph-name="info" unicode="&#xf059;" d="M403 468c-12 12-18 27-18 45s6 33 18 45 27 18 45 18 33-6 45-18 18-27 18-45-6-33-18-45-27-19-45-19-33 7-45 19z m109-147c-1 16-7 31-20 44-13 12-27 19-44 20h-64c-17-1-31-8-44-20-13-13-19-28-20-44h64v-192c1-17 7-32 20-44 13-13 27-20 44-20h64c17 0 31 7 44 20 13 12 19 27 20 44h-64V321z m-64 364C247 685 83 522 83 321s164-365 365-365 365 163 365 365-164 364-365 364m0 84c247 0 448-201 448-448S695-127 448-127 0 73 0 321 201 769 448 769z" horiz-adv-x="896" />
<glyph glyph-name="issue-closed" unicode="&#xf028;" d="M448 192h128v-128H448V192z m128 384H448v-320h128V576z m96-96l-64-64 160-160 256 288-64 64-192-224-96 96zM512-45c-201 0-365 164-365 365s164 365 365 365c117 0 221-56 288-141l59 59C777 704 652 768 512 768 265 768 64 567 64 320s201-448 448-448 448 201 448 448l-97-97c-42-154-183-268-351-268z" horiz-adv-x="1024" />
<glyph glyph-name="issue-opened" unicode="&#xf026;" d="M448 685c201 0 365-164 365-365S649-45 448-45 83 119 83 320s164 365 365 365m0 83C201 768 0 567 0 320s201-448 448-448 448 201 448 448S695 768 448 768z m64-192H384v-320h128V576z m0-384H384v-128h128V192z" horiz-adv-x="896" />
<glyph glyph-name="issue-reopened" unicode="&#xf027;" d="M512 256H384V576h128v-320zM384 64h128V192H384v-128z m405 128H640l96-96c-67-85-171-141-288-141-201 0-365 164-365 365 0 22 2 43 6 64H5c-3-21-5-42-5-64 0-247 201-448 448-448 140 0 264 65 346 166l102-102V192H789zM107 448h149l-96 96c67 85 171 141 288 141 201 0 365-164 365-365 0-22-2-43-6-64h84c3 21 5 42 5 64 0 247-201 448-448 448-140 0-264-65-346-166L0 704v-256h107z" horiz-adv-x="896" />
<glyph glyph-name="italic" unicode="&#xf0e4;" d="M180 512h127L192-64H64l116 576z m23 173c0 45 37 83 85 83 36 0 72-24 72-66 0-48-38-83-85-83-37 0-72 24-72 66z" horiz-adv-x="384" />
<glyph glyph-name="jersey" unicode="&#xf019;" d="M224 448l-32-32v-320l32-32h128l32 32V416l-32 32H224z m96-320h-64V384h64v-256z m401 464c-14 88-20 168-17 240H513c0-17-8-31-25-44-16-13-40-19-72-19s-56 6-72 19c-15 13-23 27-23 44H128c3-72-2-152-16-240-13-88-51-136-112-144v-576c1-17 7-31 20-44s27-19 44-20h704c17 1 31 7 44 20s19 27 20 44V448c-61 8-98 56-112 144z m47-720H64V384c57 32 95 80 110 144s20 144 18 240h64c-1-50 10-94 33-132 23-37 65-57 128-60 63 1 105 21 128 60 23 38 32 82 31 132h64c1-91 8-163 21-216 13-52 44-128 107-168v-512zM480 448l-32-32v-320l32-32h128l32 32V416l-32 32H480z m96-320h-64V384h64v-256z" horiz-adv-x="896" />
<glyph glyph-name="key" unicode="&#xf049;" d="M821 693c-48 48-108 73-181 75-72-2-133-27-181-75s-72-108-74-181c0-19 2-38 6-57L0 64v-64l64-64h128l64 64v64h64v64h64v64h128l70 71c19-5 38-7 58-7 73 2 133 27 181 75s73 108 75 181c-2 73-27 133-75 181zM704 488c-49 0-88 39-88 88s39 88 88 88 88-39 88-88-39-88-88-88z" horiz-adv-x="896" />
<glyph glyph-name="keyboard" unicode="&#xf00d;" d="M640 512h-64v64h64v-64z m-448-64h-64v-64h64v64z m320 128h-64v-64h64v64z m-256 0H128v-64h128v64z m512-448h128v64H768v-64zM512 384h64v64h-64v-64zM256 192H128v-64h128v64z m512 384h-64v-64h64v64z m128 0h-64v-64h64v64zM768 256h128V448H768v-192z m256 384v-576c0-35-29-64-64-64H64c-35 0-64 29-64 64V640c0 35 29 64 64 64h896c35 0 64-29 64-64z m-64 0H64v-576h896V640zM384 384h64v64h-64v-64z m0 192h-64v-64h64v64zM256 384h64v64h-64v-64z m64-256h384v64H320v-64z m320 256h64v64h-64v-64z m-448-64h-64v-64h64v64z m320 0v-64h64v64h-64z m-128 0v-64h64v64h-64z m-64 0h-64v-64h64v64z m320-64h64v64h-64v-64z" horiz-adv-x="1024" />
<glyph glyph-name="law" unicode="&#xf0d8;" d="M448 576c-53 0-96 43-96 96s43 96 96 96 96-43 96-96-43-96-96-96z m448-384c0-71-57-128-128-128h-64c-71 0-128 57-128 128l128 256h-64c-35 0-64 29-64 64h-64v-512c27 0 64-29 64-64h64c27 0 64-29 64-64H192c0 35 37 64 64 64h64c0 35 37 64 64 64h2l-2 512h-64c0-35-29-64-64-64h-64l128-256c0-71-57-128-128-128h-64C57 64 0 121 0 192l128 256H64v64h192c0 35 29 64 64 64h256c35 0 64-29 64-64h192v-64h-64l128-256zM160 384L64 192h192l-96 192z m672-192l-96 192-96-192h192z" horiz-adv-x="896" />
<glyph glyph-name="light-bulb" unicode="&#xf000;" d="M352 832C159 832 0 692 0 512c0-59 35-144 64-192 86-144 114-178 128-256v-64h320v64c14 78 42 112 128 256 29 48 64 133 64 192C704 692 545 832 352 832z m233-479c-16-28-30-51-43-71-55-90-80-132-93-207-1-3-1-7-1-11H256c0 4 0 8-1 11-13 75-38 117-93 207-13 20-27 43-43 71-27 45-55 117-55 159C64 653 193 768 352 768c78 0 151-27 206-76 53-48 82-112 82-180 0-42-28-114-55-159zM192-64h320c-15-73-83-128-160-128s-145 55-160 128z" horiz-adv-x="768" />
<glyph glyph-name="link" unicode="&#xf05c;" d="M256 256h64v-64h-64c-96 0-192 108-192 224s99 224 192 224h256c93 0 192-108 192-224 0-90-58-174-128-208v74c37 29 64 81 64 134 0 82-65 160-128 160H256c-63 0-128-78-128-160s64-160 128-160z m576 192h-64v-64h64c64 0 128-78 128-160s-65-160-128-160H576c-63 0-128 78-128 160 0 53 27 105 64 134v74c-70-34-128-118-128-208 0-116 99-224 192-224h256c93 0 192 108 192 224s-96 224-192 224z" horiz-adv-x="1024" />
<glyph glyph-name="link-external" unicode="&#xf07f;" d="M704 192h64v-192c0-35-29-64-64-64H64c-35 0-64 29-64 64V640c0 35 29 64 64 64h192v-64H64v-640h640V192zM384 704l144-144-208-208 96-96 208 208 144-144V704H384z" horiz-adv-x="768" />
<glyph glyph-name="list-ordered" unicode="&#xf062;" d="M768 0c0-38 0-64-38-64H294c-38 0-38 26-38 64s0 64 38 64h436c38 0 38-26 38-64zM294 576h436c38 0 38 26 38 64s0 64-38 64H294c-38 0-38-26-38-64s0-64 38-64z m436-192H294c-38 0-38-26-38-64s0-64 38-64h436c38 0 38 26 38 64s0 64-38 64zM128 768H82C63 756 45 752 16 746v-42h48v-137H10v-55h182v55h-64V768z m16-520c-11 0-29-2-42-4 34 36 73 80 73 121-1 50-36 83-87 83-38 0-62-13-88-41l37-37c12 12 24 24 41 24 18 0 31-10 31-33 0-34-49-77-109-132v-37h192l-6 56h-42z m-5-242v2c28 12 41 30 41 55 0 45-36 71-92 71-31 0-57-12-82-33l35-41c16 13 28 20 44 20 17 0 27-8 27-23 0-17-13-28-55-28v-48c53 0 63-11 63-30 0-16-15-24-37-24-18 0-36 9-52 24L0-92c19-23 49-36 90-36 53 0 98 26 98 74 0 32-20 52-49 60z" horiz-adv-x="768" />
<glyph glyph-name="list-unordered" unicode="&#xf061;" d="M128 0c0-38 0-64-38-64H38c-38 0-38 26-38 64s0 64 38 64h52c38 0 38-26 38-64z m166 576h436c38 0 38 26 38 64s0 64-38 64H294c-38 0-38-26-38-64s0-64 38-64zM90 384H38c-38 0-38-26-38-64s0-64 38-64h52c38 0 38 26 38 64s0 64-38 64z m0 320H38c-38 0-38-26-38-64s0-64 38-64h52c38 0 38 26 38 64s0 64-38 64z m640-320H294c-38 0-38-26-38-64s0-64 38-64h436c38 0 38 26 38 64s0 64-38 64z m0-320H294c-38 0-38-26-38-64s0-64 38-64h436c38 0 38 26 38 64s0 64-38 64z" horiz-adv-x="768" />
<glyph glyph-name="location" unicode="&#xf060;" d="M384 832C172 832 0 672 0 480c0-289 384-672 384-672s384 383 384 672C768 672 596 832 384 832z m0-931C265 31 64 292 64 480 64 639 208 768 384 768c86 0 167-31 228-87 59-55 92-126 92-201 0-188-201-449-320-579z m128 579c0-71-57-128-128-128s-128 57-128 128 57 128 128 128 128-57 128-128z" horiz-adv-x="768" />
<glyph glyph-name="lock" unicode="&#xf06a;" d="M256 0h-64v64h64v-64z m512 384v-448c0-35-29-64-64-64H64c-35 0-64 29-64 64V384c0 35 29 64 64 64h64V576C128 717 243 832 384 832s256-115 256-256v-128h64c35 0 64-29 64-64z m-525 64h282V576c0 78-63 141-141 141s-141-63-141-141v-128z m461-64H128v-448h576V384z m-448-64h-64v-64h64v64z m0-128h-64v-64h64v64z" horiz-adv-x="768" />
<glyph glyph-name="logo-gist" unicode="&#xf0ad;" d="M301 401h157v-257c-35-17-105-22-162-22-164 0-222 141-222 323S132 769 296 769c82 0 132-15 210-47V790C465 811 400 832 296 832 72 832 0 660 0 446s71-386 296-386c105 0 180 17 230 41V465H301v-64z m409-238V572h-67v-402c0-80 37-110 110-110v57c-31 0-43 10-43 45v1z m16 558c0 28-21 50-50 50s-49-22-49-50 21-50 49-50 50 22 50 50z m278-364c-96 8-114 31-114 75 0 49 21 86 120 86 67 0 106-10 145-23v60c-44 19-97 25-144 25-141 0-187-77-187-148 0-69 30-120 175-133 99-8 113-40 113-86 0-47-28-91-132-91-71 0-119 12-149 23v-60c32-13 101-25 149-25 152 0 201 77 201 154 0 82-34 130-176 143h-1z m549 158v55h-155V730l-69-20v-135l-100-28v-31h100v-320c0-98 76-136 160-136 12 0 33 1 44 3v57c-12-2-26-2-39-2-62 0-96 25-96 86V516h155v-1z" horiz-adv-x="1600" />
<glyph glyph-name="logo-github" unicode="&#xf092;" d="M553 500H312c-7 0-12-5-12-11v-118c0-6 5-11 12-11h94v-147s-21-7-80-7c-69 0-165 25-165 237s101 239 195 239c81 0 116-14 139-21 7-2 13 5 13 11l27 114c0 3-1 6-4 9-9 6-65 37-205 37C165 832 0 764 0 435s189-379 348-379c132 0 212 57 212 57 3 1 4 6 4 8V489c0 6-5 11-12 11h1zM1773 804h-136c-6 0-11-5-11-11v-262h-212V793c0 6-5 11-11 11h-136c-6 0-11-5-11-11v-711c0-6 6-11 11-11h136c6 0 11 5 11 11V386h212l-1-304c0-6 5-11 11-11h136c6 0 11 5 11 11V793c0 6-5 11-11 11h1zM716 788c-49 0-88-39-88-88s39-88 88-88c48 0 87 39 87 88s-39 88-87 88z m78-227c0 6-5 11-11 11H647c-6 0-11-6-11-13 0 0 0-395 0-470 0-13 8-17 19-17 0 0 58 0 123 0 13 0 16 6 16 17 0 25 0 471 0 471v1z m1505 10h-134c-7 0-11-5-11-12v-348s-35-25-83-25-62 22-62 70c0 47 0 304 0 304 0 6-5 11-11 11h-137c-6 0-11-5-11-11 0 0 0-186 0-327s79-176 187-176c89 0 161 49 161 49s3-25 5-29c1-3 6-6 10-6h86c7 0 11 5 11 11l1 478c0 6-5 11-12 11z m369 16c-77 0-129-34-129-34V794c0 6-5 11-11 11h-136c-6 0-11-5-11-11l-1-711c0-6 6-11 12-11h95c4 0 7 1 9 5 3 4 6 33 6 33s56-53 161-53c124 0 195 63 195 282s-113 248-190 248z m-53-401c-47 1-78 23-78 23V434s31 19 69 22c49 5 96-10 96-126 0-122-21-146-87-144z m-1429 3c-6 0-21-3-37-3-50 0-67 23-67 53s0 200 0 200h102c6 0 10 5 10 12V560c0 6-5 11-10 11h-102V706c0 5-3 8-9 8H935c-6 0-9-3-9-8v-139s-70-17-74-18c-5-1-8-6-8-11v-87c0-7 5-12 11-12h71s0-92 0-210c0-156 109-172 183-172 34 0 75 11 81 14 4 1 6 6 6 10v96c0 7-5 12-11 12h1z" horiz-adv-x="2880" />
<glyph glyph-name="mail" unicode="&#xf03b;" d="M0 576v-512c0-35 29-64 64-64h768c35 0 64 29 64 64V576c0 35-29 64-64 64H64c-35 0-64-29-64-64z m832 0L448 256 64 576h768zM64 480l256-192L64 96V480z m64-416l224 192 96-96 96 96 224-192H128z m704 32L576 288l256 192v-384z" horiz-adv-x="896" />
<glyph glyph-name="mail-read" unicode="&#xf03c;" d="M384 512H256v64h128v-64z m192-64H256v-64h320v64z m320 31v-543c0-35-29-64-64-64H64c-35 0-64 29-64 64V479c0 21 10 40 27 52l101 72v37c0 35 29 64 64 64h77L448 832l179-128h77c35 0 64-29 64-64v-37l101-72c17-12 27-31 27-52zM192 352l256-160 256 160V640H192v-288zM64-32l288 192L64 352v-384z m704-32L448 128 128-64h640z m64 416L544 160l288-192V352z" horiz-adv-x="896" />
<glyph glyph-name="mail-reply" unicode="&#xf051;" d="M384 672l-384-288 384-288v192c111 0 329-61 384-280 0 291-196 451-384 472v192z" horiz-adv-x="768" />
<glyph glyph-name="mark-github" unicode="&#xf00a;" d="M512 832C229.252 832 0 602.748 0 320c0-226.251 146.688-418.126 350.155-485.813 25.593-4.686 34.937 11.125 34.937 24.626 0 12.188-0.469 52.562-0.718 95.314-128.708-23.46-161.707 31.541-172.469 60.373-5.525 14.809-30.407 60.249-52.398 72.263-17.988 9.828-43.26 33.237-0.917 33.735 40.434 0.476 69.348-37.308 78.471-52.75 45.938-77.749 119.876-55.627 148.999-42.5 4.654 32.999 17.902 55.627 32.501 68.373-113.657 12.939-233.22 56.875-233.22 253.063 0 55.94 19.968 101.561 52.658 137.404-5.22 12.999-22.844 65.095 5.063 135.563 0 0 42.937 13.749 140.811-52.501 40.811 11.406 84.594 17.031 128.124 17.22 43.499-0.188 87.314-5.874 128.188-17.28 97.689 66.311 140.686 52.501 140.686 52.501 28-70.532 10.375-122.564 5.124-135.499 32.811-35.844 52.626-81.468 52.626-137.404 0-196.686-119.751-240-233.813-252.686 18.439-15.876 34.748-47.001 34.748-94.748 0-68.437-0.686-123.627-0.686-140.501 0-13.625 9.312-29.561 35.25-24.562C877.436-97.99800000000005 1024 93.87400000000002 1024 320 1024 602.748 794.748 832 512 832z" horiz-adv-x="1024" />
<glyph glyph-name="markdown" unicode="&#xf0c9;" d="M950.154 640H73.846C33.127 640 0 606.873 0 566.154v-492.308C0 33.125 33.127 0 73.846 0h876.308c40.721 0 73.846 33.125 73.846 73.846V566.154C1024 606.873 990.875 640 950.154 640zM576 128.125L448 128V320l-96-123.077L256 320v-192H128V512h128l96-128 96 128 128 0.125V128.125zM767.091 96.125L608 320h96V512h128v-192h96L767.091 96.125z" horiz-adv-x="1024" />
<glyph glyph-name="megaphone" unicode="&#xf077;" d="M640 768c-11 0-23-3-33-9-92-56-319-220-415-247-88 0-192-43-192-160s104-160 192-160c19-5 41-15 64-26v-294h128V93c86-55 172-117 223-148 10-6 22-9 33-9 33 0 64 27 64 64V704c0 37-31 64-64 64z m0-768c-24 15-57 37-96 64-10 7-21 14-32 22V620c10 7 20 13 30 20 39 26 74 49 98 64v-704z m128 384h256v-64H768v64z m0-128l256-128v-64L768 192v64z m256 384v-64L768 448v64l256 128z" horiz-adv-x="1024" />
<glyph glyph-name="mention" unicode="&#xf0be;" d="M421-128c80 0 161 20 228 60l-27 60c-54-33-121-53-194-53-207 0-361 133-361 366C67 585 274 765 488 765c221 0 334-140 334-333 0-153-86-247-160-247-67 0-87 47-67 140l47 240h-67l-7-46c-26 40-60 53-100 53-140 0-234-153-234-280 0-107 60-167 147-167 54 0 107 34 147 80 7-60 60-93 127-93 107 0 241 107 241 320C896 665 742 832 501 832 234 832 0 619 0 299c0-280 187-427 421-427z m-20 320c-47 0-87 33-87 107 0 93 60 206 154 206 33 0 54-13 80-53l-33-193c-40-47-80-67-114-67z" horiz-adv-x="896" />
<glyph glyph-name="milestone" unicode="&#xf075;" d="M512 704H384V832h128v-128z m256-320H128c-35 0-64 29-64 64V576c0 35 29 64 64 64h640l128-128-128-128zM512 576H384v-128h128V576z m-128-768h128V320H384v-512z" horiz-adv-x="896" />
<glyph glyph-name="mirror" unicode="&#xf024;" d="M992 531L544 832 96 531c-19-12-32-29-32-51v-672l480 256 480-256V480c0 22-13 39-32 51z m-32-627L576 112v80h-64v-80L128-96V480L512 736v-288h64V736l384-256v-576zM384 384h320V512l192-192-192-192V256H384v-128L192 320l192 192v-128z" horiz-adv-x="1024" />
<glyph glyph-name="mortar-board" unicode="&#xf0d7;" d="M501 244l-245 76s0-96 0-160 115-96 256-96 256 32 256 96 0 160 0 160l-245-76c-7-2-15-2-23 0h1z m18 409c-4 1-9 1-13 0l-489-152c-21-7-21-36 0-43l111-35v-113c-19-11-32-32-32-55 0-12 3-23 9-32-5-9-9-20-9-32v-165c0-35 128-35 128 0v165c0 12-3 23-9 32 5 9 9 20 9 32 0 24-13 44-32 55v93l313-98c4-1 9-1 13 0l489 152c21 7 21 36 0 43l-488 153z m-6-205c-35 0-64 14-64 32s29 32 64 32 64-14 64-32-29-32-64-32z" horiz-adv-x="1024" />
<glyph glyph-name="mute" unicode="&#xf080;" d="M512 652v-664c0-43-52-64-82-34L192 192H64c-35 0-64 29-64 64V384c0 35 29 64 64 64h128l238 238c30 30 82 9 82-34z m482-206l-68 68-126-126-126 126-68-68 126-126-126-126 68-68 126 126 126-126 68 68-126 126 126 126z" horiz-adv-x="1024" />
<glyph glyph-name="no-newline" unicode="&#xf09c;" d="M1024 512v-192c0-35-29-64-64-64H768v-128L576 320l192 192v-128h128V512h128zM512 320c0-141-115-256-256-256S0 179 0 320s115 256 256 256 256-115 256-256zM96 214l266 266c-31 20-67 32-106 32-106 0-192-86-192-192 0-39 12-75 32-106z m352 106c0 39-12 75-32 106L150 160c31-20 67-32 106-32 106 0 192 86 192 192z" horiz-adv-x="1024" />
<glyph glyph-name="octoface" unicode="&#xf008;" d="M940.812 554.312c8.25 20.219 35.375 101.75-8.562 211.906 0 0-67.375 21.312-219.875-82.906C648.5 700.875 579.875 703.5 512 703.5c-67.906 0-136.438-2.625-200.5-20.25C159.031 787.531 91.719 766.219 91.719 766.219 47.812 656 74.938 574.531 83.188 554.312 31.5 498.438 0 427.125 0 339.656 0 10.437999999999988 213.25-64 510.844-64 808.562-64 1024 10.437999999999988 1024 339.656 1024 427.125 992.5 498.438 940.812 554.312zM512-1c-211.406 0-382.781 9.875-382.781 214.688 0 48.938 24.062 94.595 65.344 132.312 68.75 62.969 185.281 29.688 317.438 29.688 132.25 0 248.625 33.281 317.438-29.625 41.312-37.78 65.438-83.312 65.438-132.312C894.875 8.875 723.375-1 512-1zM351.156 319.562c-42.469 0-76.906-51.062-76.906-114.188s34.438-114.312 76.906-114.312c42.375 0 76.812 51.188 76.812 114.312S393.531 319.562 351.156 319.562zM672.875 319.562C630.5 319.562 596 268.5 596 205.375s34.5-114.312 76.875-114.312 76.812 51.188 76.812 114.312C749.75 268.5 715.312 319.562 672.875 319.562z" horiz-adv-x="1024" />
<glyph glyph-name="organization" unicode="&#xf037;" d="M304 515c35-41 86-67 144-67s109 26 144 67c22-40 64-67 112-67 71 0 128 57 128 128s-57 128-128 128c-26 0-49-8-69-21C615 768 539 832 448 832S281 768 261 683c-20 13-43 21-69 21-71 0-128-57-128-128s57-128 128-128c48 0 90 27 112 67z m333 97c13 24 38 41 67 41 42 0 77-35 77-77s-35-77-77-77-75 34-76 75c4 12 7 25 9 38zM448 769c71 0 129-58 129-129s-58-129-129-129-129 58-129 129S377 769 448 769zM192 499c-42 0-77 35-77 77s35 77 77 77c29 0 54-17 67-41 2-13 5-26 9-38-1-41-34-75-76-75z m640-51H64c-35 0-64-29-64-64v-192c0-35 29-64 64-64v-128c0-35 29-64 64-64h64c35 0 64 29 64 64v64h64v-192c0-35 29-64 64-64h128c35 0 64 29 64 64V64h64v-64c0-35 29-64 64-64h64c35 0 64 29 64 64V128c35 0 64 29 64 64V384c0 35-29 64-64 64zM192 0h-64V192H64V384h128v-384z m448 128h-64V256h-64v-384H384V256h-64v-128h-64V384h384v-256z m192 64h-64v-192h-64V384h128v-192z" horiz-adv-x="896" />
<glyph glyph-name="package" unicode="&#xf0c4;" d="M0 559v-478c0-29 19-54 48-62l416-111c10-3 22-3 32 0l416 111c29 8 48 33 48 62V559c0 29-19 54-48 62L496 732c-10 2-22 2-32 0L48 621c-29-8-48-33-48-62z m448-582L64 79V512l384-103v-432zM64 576l160 43 416-111-160-43L64 576z m832-497L512-23V409l128 35v-156l128 34V478l128 34v-433zM768 542L352 653l128 34 416-111-128-34z" horiz-adv-x="1024" />
<glyph glyph-name="paintcan" unicode="&#xf0d1;" d="M384 832C171.923 832 0 660.077 0 448v-64c0-35.346 28.654-64 64-64v-320c0-70.692 143.269-128 320-128s320 57.308 320 128V320c35.346 0 64 28.654 64 64v64C768 660.077 596.077 832 384 832zM576 192v-32c0-17.673-14.327-32-32-32s-32 14.327-32 32v32c0 17.673-14.327 32-32 32s-32-14.327-32-32v-160c0-17.673-14.327-32-32-32s-32 14.327-32 32V160c0 17.673-14.327 32-32 32s-32-14.327-32-32v-32c0-35.346-28.654-64-64-64s-64 28.654-64 64v64c-35.346 0-64 28.654-64 64V371.193C186.382 340.108 279.318 320 384 320s197.618 20.108 256 51.193V256C640 220.654 611.346 192 576 192zM384 384c-107.433 0-199.393 26.474-237.372 64 37.979 37.526 129.939 64 237.372 64s199.393-26.474 237.372-64C583.393 410.474 491.433 384 384 384zM384 576c-176.62 0-319.816-57.236-319.996-127.867-0.001 0.001-0.002 0.001-0.003 0.002C64.075 624.804 207.314 768 384 768c176.731 0 320-143.269 320-320C704 518.692 560.731 576 384 576z" horiz-adv-x="768" />
<glyph glyph-name="pencil" unicode="&#xf058;" d="M0 64v-192h192l512 512-192 192L0 64z m192-128H64V64h64v-64h64v-64z m659 595l-83-83-192 192 83 83c25 25 65 25 90 0l102-102c25-25 25-65 0-90z" horiz-adv-x="896" />
<glyph glyph-name="person" unicode="&#xf018;" d="M448 448H64c-35 0-64-29-64-64v-320h128v-192c0-35 29-64 64-64h128c35 0 64 29 64 64V64h128V384c0 35-29 64-64 64z m0-320h-64V256h-64v-384H192V256h-64v-128H64V384h384v-256z m0 512C448 746 362 832 256 832S64 746 64 640s86-192 192-192 192 86 192 192zM256 512c-71 0-128 57-128 128S185 768 256 768s128-57 128-128-57-128-128-128z" horiz-adv-x="512" />
<glyph glyph-name="pin" unicode="&#xf041;" d="M640 755v-51l32-64-288-192H141c-28 0-43-34-22-55l201-201L64-128l320 256 201-201c21-21 55-6 55 22V192l192 288 64-32h51c28 0 43 34 22 55L695 777c-21 21-55 6-55-22z" horiz-adv-x="1024" />
<glyph glyph-name="plug" unicode="&#xf0d4;" d="M960 448v64H704V640H576v-64H448c-66 0-113-52-128-128l-64-64c-106 0-192-86-192-192v-128h64V192c0 71 57 128 128 128l64-64c16-74 63-128 128-128h128v-64h128V192h256v64H704V448h256z" horiz-adv-x="1024" />
<glyph glyph-name="plus" unicode="&#xf05d;" d="M768 256H448v-320H320V256H0V384h320V704h128v-320h320v-128z" horiz-adv-x="768" />
<glyph glyph-name="primitive-dot" unicode="&#xf052;" d="M0 320c0 141 115 256 256 256s256-115 256-256-115-256-256-256S0 179 0 320z" horiz-adv-x="512" />
<glyph glyph-name="primitive-square" unicode="&#xf053;" d="M512 64H0V576h512V64z" horiz-adv-x="512" />
<glyph glyph-name="pulse" unicode="&#xf085;" d="M736 320.062L563.188 486.406 422.406 288 352 729.594 152.438 320.062H0V192h230.406L288 307.188l57.594-345.562L576 288l102.375-96H896V320.062H736z" horiz-adv-x="896" />
<glyph glyph-name="question" unicode="&#xf02c;" d="M384 192h128v-128H384V192z m256 224c0-137-128-160-128-160H384c0 35 29 64 64 64h32c18 0 32 14 32 32v64c0 18-14 32-32 32h-64c-18 0-32-14-32-32v-32H256c0 96 96 192 192 192s192-64 192-160zM448 685c201 0 365-164 365-365S649-45 448-45 83 119 83 320s164 365 365 365m0 83C201 768 0 567 0 320s201-448 448-448 448 201 448 448S695 768 448 768z" horiz-adv-x="896" />
<glyph glyph-name="quote" unicode="&#xf063;" d="M394 629C239 529 163 426 163 254c10 3 19 3 28 3 81 0 160-55 160-154 0-103-66-167-160-167C70-64 0 33 0 208 0 451 112 626 321 747l73-118z m448 0C687 529 611 426 611 254c10 3 19 3 28 3 81 0 160-55 160-154 0-103-66-167-160-167-121 0-191 97-191 272 0 243 112 418 321 539l73-118z" horiz-adv-x="896" />
<glyph glyph-name="radio-tower" unicode="&#xf030;" d="M306.838 441.261c15.868 16.306 15.868 42.731 0 59.037-20.521 21.116-30.643 48.417-30.705 76.124 0.062 27.77 10.183 55.039 30.705 76.186 15.868 16.337 15.868 42.764 0 59.069-7.934 8.184-18.272 12.275-28.706 12.275-10.371 0-20.804-4.029-28.738-12.213-36.266-37.297-54.633-86.433-54.57-135.317-0.062-48.792 18.305-97.927 54.57-135.161C265.262 424.955 290.97 424.955 306.838 441.261zM149.093 798.858c-8.121 8.309-18.68 12.463-29.3 12.463-10.558 0-21.179-4.154-29.237-12.463C30.8 737.509 0.751 656.856 0.813 576.422 0.751 496.081 30.8 415.272 90.494 353.985c16.181-16.618 42.356-16.618 58.537 0 16.118 16.587 16.118 43.513 0 60.067-43.7 44.98-65.44 103.456-65.44 162.368s21.74 117.449 65.44 162.368C165.149 755.439 165.149 782.365 149.093 798.858zM513.031 472.153c57.351 0 103.956 46.574 103.956 103.956 0 57.382-46.605 103.955-103.956 103.955-57.381 0-103.956-46.573-103.956-103.955C409.076 518.727 455.65 472.153 513.031 472.153zM933.539 798.233c-16.181 16.618-42.355 16.618-58.475 0-16.181-16.587-16.181-43.513 0-60.068 43.668-44.918 65.409-103.456 65.409-162.368 0-58.85-21.805-117.387-65.473-162.306-16.117-16.618-16.117-43.575 0.062-60.068 8.059-8.309 18.616-12.463 29.237-12.463 10.558 0 21.178 4.154 29.236 12.463 59.726 61.287 89.774 142.096 89.649 222.437C1023.313 656.138 993.264 736.947 933.539 798.233zM513.281 389.127L513.281 389.127c-26.489-0.062-53.04 6.466-77.091 19.429L235.057-127.59000000000003h95.209l54.819 63.973h255.891l53.977-63.973h95.272L589.124 408.431C565.384 395.655 539.395 389.127 513.281 389.127zM512.656 358.483L577.004 128.29999999999995H449.059L512.656 358.483zM385.086 0.3550000000000182l63.974 63.973h127.944l63.974-63.973H385.086zM717.194 710.958c-15.868-16.306-15.868-42.731 0-59.037 20.491-21.116 30.611-48.511 30.674-76.124-0.062-27.77-10.183-55.102-30.674-76.187-15.868-16.336-15.868-42.763 0-59.068 7.871-8.184 18.242-12.213 28.737-12.213 10.309 0 20.741 4.029 28.675 12.213 36.298 37.234 54.665 86.433 54.54 135.255 0.125 48.792-18.181 97.927-54.54 135.161C758.801 727.264 733.062 727.264 717.194 710.958z" horiz-adv-x="1024" />
<glyph glyph-name="repo" unicode="&#xf001;" d="M256 256h-64v64h64v-64z m0 192h-64v-64h64v64z m0 128h-64v-64h64v64z m0 128h-64v-64h64v64z m512 64v-768c0-35-29-64-64-64H384v-128l-96 96-96-96V-64H64c-35 0-64 29-64 64V768C0 803 29 832 64 832h640c35 0 64-29 64-64z m-64-640H64v-128h128v64h192v-64h320V128z m0 640H128v-576h576V768z" horiz-adv-x="768" />
<glyph glyph-name="repo-clone" unicode="&#xf04c;" d="M960 832H576v-448c0-35 29-64 64-64h64v-64h64v64h192c35 0 64 29 64 64V768c0 35-29 64-64 64zM704 384h-64v64h64v-64z m256 0H768v64h192v-64z m0 128H704V768h256v-256z m-704 0h-64v64h64v-64z m0 128h-64v64h64v-64zM128 768h384V832H64C29 832 0 803 0 768v-768c0-35 29-64 64-64h128v-128l96 96 96-96V-64h320c35 0 64 29 64 64V192H128V768z m576-640v-128H384v64H192v-64H64V128h640zM192 320h64v-64h-64v64z m64 64h-64v64h64v-64z" horiz-adv-x="1024" />
<glyph glyph-name="repo-force-push" unicode="&#xf04a;" d="M640 256H512v-448H384V256H256l144 192H256l192 256 192-256H496l144-192zM704 832H64C29 832 0 803 0 768v-768c0-35 29-64 64-64h256v64H64V128h256v64H128V768h576v-576H576v-64h128v-128H576v-64h128c35 0 64 29 64 64V768c0 35-29 64-64 64z" horiz-adv-x="768" />
<glyph glyph-name="repo-forked" unicode="&#xf002;" d="M512 768c-71 0-128-57-128-128 0-47 26-88 64-110v-82L320 320 192 448v82c38 22 64 63 64 110 0 71-57 128-128 128S0 711 0 640c0-47 26-88 64-110v-114l192-192v-114c-38-22-64-63-64-110 0-71 57-128 128-128s128 57 128 128c0 47-26 88-64 110V224l192 192V530c38 22 64 63 64 110 0 71-57 128-128 128zM128 563c-42 0-77 35-77 77s35 77 77 77 77-35 77-77-35-77-77-77z m192-640c-42 0-77 35-77 77s35 77 77 77 77-35 77-77-35-77-77-77z m192 640c-42 0-77 35-77 77s35 77 77 77 77-35 77-77-35-77-77-77z" horiz-adv-x="640" />
<glyph glyph-name="repo-pull" unicode="&#xf006;" d="M832 320V448H448V576h384V704l192-192-192-192zM256 704h-64v-64h64v64z m448-320h64v-384c0-35-29-64-64-64H384v-128l-96 96-96-96V-64H64c-35 0-64 29-64 64V768C0 803 29 832 64 832h640c35 0 64-29 64-64v-128h-64V768H128v-576h576V384z m0-256H64v-128h128v64h192v-64h320V128zM256 448h-64v-64h64v64z m0 128h-64v-64h64v64z m-64-320h64v64h-64v-64z" horiz-adv-x="1024" />
<glyph glyph-name="repo-push" unicode="&#xf005;" d="M256 640h-64v64h64v-64z m-64-128h64v64h-64v-64z m256 0L256 256h128v-448h128V256h128L448 512zM704 832H64C29 832 0 803 0 768v-768c0-35 29-64 64-64h256v64H64V128h256v64H128V768h577l-1-576H576v-64h128v-128H576v-64h128c35 0 64 29 64 64V768c0 35-29 64-64 64z" horiz-adv-x="768" />
<glyph glyph-name="rocket" unicode="&#xf033;" d="M1024 832s-6-24-19-68c-13-45-35-101-68-170-45 5-81 21-106 46s-40 60-45 105c69 33 125 56 169 69 45 13 69 18 69 18zM779 587c-17 17-30 35-40 56-10 20-17 42-22 65-37-21-74-45-111-72-37-28-73-60-108-95-45-45-85-116-114-157H192L0 192h192l128 128c-22-49-65-191-64-192l64-64c1-1 143 41 192 64L384 0v-192l192 192V192c41 29 112 70 157 114 35 35 67 72 94 109 28 37 52 74 73 110-23 5-45 12-66 22-20 10-38 23-55 40z" horiz-adv-x="1024" />
<glyph glyph-name="rss" unicode="&#xf034;" d="M128 0H0V128c71 0 128-57 128-128zM0 640v-64c318 0 576-258 576-576h64c0 353-287 640-640 640z m0-256v-64c176 0 320-144 320-320h64c0 212-172 384-384 384z" horiz-adv-x="640" />
<glyph glyph-name="ruby" unicode="&#xf047;" d="M832 448L512 128V576h192l128-128z m192 0L512-64 0 448l256 256h512l256-256zM512 32l416 416-192 192H288L96 448l416-416z" horiz-adv-x="1024" />
<glyph glyph-name="search" unicode="&#xf02e;" d="M1005-83L761 162c45 63 71 139 71 222 0 212-172 384-384 384S64 596 64 384s172-384 384-384c83 0 159 26 222 71l245-244c12-13 29-19 45-19s33 6 45 19c25 25 25 65 0 90zM448 83c-166 0-301 135-301 301s135 301 301 301 301-135 301-301-135-301-301-301z" horiz-adv-x="1024" />
<glyph glyph-name="server" unicode="&#xf097;" d="M704 448H64c-35 0-64-29-64-64v-128c0-35 29-64 64-64h640c35 0 64 29 64 64V384c0 35-29 64-64 64zM128 256H64V384h64v-128z m128 0h-64V384h64v-128z m128 0h-64V384h64v-128z m128 0h-64V384h64v-128zM704 768H64C29 768 0 739 0 704v-128c0-35 29-64 64-64h640c35 0 64 29 64 64V704c0 35-29 64-64 64zM128 576H64V704h64v-128z m128 0h-64V704h64v-128z m128 0h-64V704h64v-128z m128 0h-64V704h64v-128z m192 64h-64v64h64v-64z m0-512H64c-35 0-64-29-64-64v-128c0-35 29-64 64-64h640c35 0 64 29 64 64V64c0 35-29 64-64 64zM128-64H64V64h64v-128z m128 0h-64V64h64v-128z m128 0h-64V64h64v-128z m128 0h-64V64h64v-128z" horiz-adv-x="768" />
<glyph glyph-name="settings" unicode="&#xf07c;" d="M192 384h-64V704h64v-320z m-64-448h64V128h-64v-192z m320 0h64V320h-64v-384z m320 0h64V64h-64v-128z m64 768h-64v-384h64V704z m-320 0h-64v-128h64V704zM256 320H64c-35 0-64-29-64-64s29-64 64-64h192c35 0 64 29 64 64s-29 64-64 64z m320 192H384c-35 0-64-29-64-64s29-64 64-64h192c35 0 64 29 64 64s-29 64-64 64z m320-256H704c-35 0-64-29-64-64s29-64 64-64h192c35 0 64 29 64 64s-29 64-64 64z" horiz-adv-x="1024" />
<glyph glyph-name="shield" unicode="&#xf0e1;" d="M448 832L0 704v-385c0-299 340-511 448-511s448 212 448 511V704L448 832zM320 128l73 179c3 15-4 30-16 38-36 23-57 61-57 103 0 70 57 128 127 128 69 0 129-58 129-128 0-42-21-80-57-103-12-8-19-23-16-38l73-179H320z" horiz-adv-x="896" />
<glyph glyph-name="sign-in" unicode="&#xf036;" d="M384 400v-336h256V320h64v-256c0-35-29-64-64-64H384v-192L35-18c-21 11-35 33-35 58V768C0 803 29 832 64 832h576c35 0 64-29 64-64v-192h-64V768H128l256-128v-144l192 144v-128h256v-128H576v-128L384 400z" horiz-adv-x="896" />
<glyph glyph-name="sign-out" unicode="&#xf032;" d="M768 256V384H512V512h256V640l256-192-256-192zM640 64H384V640L128 768h512v-192h64V768c0 35-29 64-64 64H64C29 832 0 803 0 768v-728c0-25 14-47 35-58l349-174V0h256c35 0 64 29 64 64V320h-64v-256z" horiz-adv-x="1024" />
<glyph glyph-name="smiley" unicode="&#xf0e7;" d="M512 832C229 832 0 603 0 320s229-512 512-512 512 229 512 512S795 832 512 832z m308-820c-40-40-87-71-139-93-53-23-110-34-169-34s-116 11-169 34c-52 22-99 53-139 93s-71 87-93 139c-23 53-34 110-34 169s11 116 34 169c22 52 53 99 93 139s87 71 139 93c53 23 110 34 169 34s116-11 169-34c52-22 99-53 139-93s71-87 93-139c23-53 34-110 34-169s-11-116-34-169c-22-52-53-99-93-139zM256 461v38c0 42 34 76 77 76h38c42 0 76-34 76-76v-38c0-43-34-77-76-77h-38c-43 0-77 34-77 77z m320 0v38c0 42 34 76 77 76h38c42 0 76-34 76-76v-38c0-43-34-77-76-77h-38c-43 0-77 34-77 77z m256-269c-46-120-186-192-320-192s-274 72-320 192c-9 25 15 64 42 64h550c26 0 57-39 48-64z" horiz-adv-x="1024" />
<glyph glyph-name="squirrel" unicode="&#xf0b2;" d="M768 768c-141.385 0-256-83.75-256-186.875C512 457.25 544 387 512 192c0 288-177 405.783-256 405.783 3.266 32.17-30.955 42.217-30.955 42.217s-14-7.124-19.354-21.583c-17.231 20.053-36.154 17.54-36.154 17.54l-8.491-37.081c0 0-117.045-40.876-118.635-206.292C56 371 141.311 353.898 201.887 364.882c57.157-2.956 42.991-50.648 30.193-63.446C178.083 247.438 128 320 64 320s-64-64 0-64 64-64 192-64c-198-77 0-256 0-256h-64c-64 0-64-64-64-64s256 0 384 0c192 0 320 64 320 222.182 0 54.34-27.699 114.629-64 162.228C697.057 349.433 782.453 427.566 832 384s192-64 192 128C1024 653.385 909.385 768 768 768zM160 448c-17.674 0-32 14.327-32 32 0 17.674 14.326 32 32 32 17.673 0 32-14.326 32-32C192 462.327 177.673 448 160 448z" horiz-adv-x="1024" />
<glyph glyph-name="star" unicode="&#xf02a;" d="M896 448l-313.5 40.781L448 768 313.469 488.781 0 448l230.469-208.875L171-63.93799999999999l277 148.812 277.062-148.812L665.5 239.125 896 448z" horiz-adv-x="896" />
<glyph glyph-name="stop" unicode="&#xf08f;" d="M640 768H256L0 512v-384l256-256h384l256 256V512L640 768z m192-608L608-64H288L64 160V480l224 224h320l224-224v-320zM384 576h128v-320H384V576z m0-384h128v-128H384V192z" horiz-adv-x="896" />
<glyph glyph-name="sync" unicode="&#xf087;" d="M655.461 358.531c11.875-81.719-13.062-167.781-76.812-230.594-94.188-92.938-239.5-104.375-346.375-34.562l74.875 73L31.96 204.75 70.367-64l84.031 80.5c150.907-111.25 364.938-100.75 502.063 34.562 79.5 78.438 115.75 182.562 111.25 285.312L655.461 358.531zM189.46 511.938c94.156 92.938 239.438 104.438 346.313 34.562l-75-72.969 275.188-38.406L697.586 704l-83.938-80.688C462.711 734.656 248.742 724.031 111.585 588.75 32.085 510.344-4.133 406.219 0.335 303.5l112.25-22.125C100.71 363.125 125.71 449.094 189.46 511.938z" horiz-adv-x="768.051" />
<glyph glyph-name="tag" unicode="&#xf015;" d="M431 657c-30 30-71 47-113 47H160C72 704 0 632 0 544v-158c0-42 17-83 47-113l388-388c25-25 65-25 90 0l294 294c25 25 25 65 0 90L431 657zM88 314c-20 19-30 45-30 72V544c0 56 46 102 102 102h158c27 0 53-10 72-30l393-392-303-303L88 314z m40 262h128v-128H128V576z" horiz-adv-x="896" />
<glyph glyph-name="tasklist" unicode="&#xf0e5;" d="M986 256H486c-38 0-38 26-38 64s0 64 38 64h500c38 0 38-26 38-64s0-64-38-64zM614 576c-38 0-38 26-38 64s0 64 38 64h372c38 0 38-26 38-64s0-64-38-64H614zM0 582l90 83 102-102L454 832l90-90-352-352L0 582z m486-518h500c38 0 38-26 38-64s0-64-38-64H486c-38 0-38 26-38 64s0 64 38 64z" horiz-adv-x="1024" />
<glyph glyph-name="telescope" unicode="&#xf088;" d="M512 256l192-384h-64L512 128v-320h-64V192L320-128h-64l128 320 128 64zM448 832h-64v-64h64V832zM320 640h-64v-64h64v64zM128 768H64v-64h64V768zM40 256c-14-10-18-28-10-43l35-59c8-15 26-20 41-13l89 42-74 128-81-55z m505 345L174 348l79-137 405 194-113 196z m270-82l-94 161c-9 16-30 21-46 11l-77-53 118-205 85 41c17 8 23 28 14 45z" horiz-adv-x="896" />
<glyph glyph-name="terminal" unicode="&#xf0c8;" d="M448 192h256v-64H448v64z m-192-64l192 192-192 192-48-48 144-144-144-144 48-48z m640 512v-640c0-35-29-64-64-64H64c-35 0-64 29-64 64V640c0 35 29 64 64 64h768c35 0 64-29 64-64z m-64 0H64v-640h768V640z" horiz-adv-x="896" />
<glyph glyph-name="text-size" unicode="&#xf0e3;" d="M1150-64h-144l-61 208H685l-61-208H480l-44 149H226l-45-149H42l211 614h160l139-406 185 560h161l252-768zM407 184s-65 231-75 263h-5l-72-263h152z m507 67l-97 347h-4l-96-347h197z" horiz-adv-x="1152" />
<glyph glyph-name="three-bars" unicode="&#xf05e;" d="M730 256H38c-38 0-38 26-38 64s0 64 38 64h692c38 0 38-26 38-64s0-64-38-64z m0 256H38c-38 0-38 26-38 64s0 64 38 64h692c38 0 38-26 38-64s0-64-38-64zM38 128h692c38 0 38-26 38-64s0-64-38-64H38c-38 0-38 26-38 64s0 64 38 64z" horiz-adv-x="768" />
<glyph glyph-name="thumbsdown" unicode="&#xf0db;" d="M1023 331l-62 381C950 800 840 832 768 832H364c-13 0-24-3-34-9l-92-55H128C60 768 0 708 0 640v-256c0-68 60-129 128-128h128c58 0 89-29 153-99 58-64 56-115 40-209-5-32 4-64 27-91 25-30 63-49 100-49 117 0 192 238 192 321l-1 63c1 0 1 0 1 0h129c74 0 125 51 127 126 0 4 1 8-1 13z m-126-76H769c-45 0-66-18-66-62l2-66c0-81-75-256-128-256-32 0-69 32-64 64 16 101 22 178-57 265-65 72-113 120-200 120V704l107 64h405c47 0 125-20 128-64l1-1 64-384c-2-41-24-64-64-64z" horiz-adv-x="1024" />
<glyph glyph-name="thumbsup" unicode="&#xf0da;" d="M896 448H768s0 0-1 0l1 63c0 83-75 321-192 321-37 0-75-19-100-49-23-26-32-58-27-90 16-95 18-146-40-210-64-70-95-99-153-99H128C60 384 0 324 0 256v-256c0-68 60-128 128-128h110l92-55c10-6 21-9 33-9h405c72 0 182 32 192 120l63 381c1 5 1 9 1 13-2 75-54 126-128 126z m0-512c-3-44-81-64-128-64H363l-107 64V320c87 0 135 48 200 120 79 87 73 164 56 264-5 32 32 64 64 64 53 0 128-175 128-256l-1-66c0-44 21-62 65-62h128c40 0 63-23 64-64l-64-384z" horiz-adv-x="1024" />
<glyph glyph-name="tools" unicode="&#xf031;" d="M286.547 366.984c16.843-16.812 81.716-85.279 81.716-85.279l35.968 37.093-56.373 58.248L456.072 491.98c0 0-48.842 47.623-27.468 28.655 20.438 75.903 1.812 160.589-55.842 220.243C315.608 800.064 234.392 819.47 161.425 799.096l123.653-127.715-32.53-125.309-121.06-33.438L7.898 640.3820000000001c-19.718-75.436-0.969-159.339 56.311-218.556C124.302 359.703 210.83 341.453 286.547 366.984zM698.815 242.769L549.694 95.46100000000001l245.932-254.805c20.062-20.812 46.498-31.188 72.872-31.188 26.25 0 52.624 10.375 72.811 31.188 40.249 41.624 40.249 108.997 0 150.62L698.815 242.769zM1023.681 670.162L867.06 832.001 405.387 354.703l56.373-58.248L185.425 10.839000000000055l-63.154-33.749-89.217-145.559 22.719-23.562 140.839 92.247 32.655 65.312 276.336 285.554 56.404-58.248L1023.681 670.162z" horiz-adv-x="1024" />
<glyph glyph-name="trashcan" unicode="&#xf0d0;" d="M640 704H512c0 35-29 64-64 64H256c-35 0-64-29-64-64H64c-35 0-64-29-64-64v-64c0-35 29-64 64-64v-576c0-35 29-64 64-64h448c35 0 64 29 64 64V512c35 0 64 29 64 64v64c0 35-29 64-64 64z m-64-768H128V512h64v-512h64V512h64v-512h64V512h64v-512h64V512h64v-576z m64 640H64v64h576v-64z" horiz-adv-x="768" />
<glyph glyph-name="triangle-down" unicode="&#xf05b;" d="M0 512l384-384 384 384H0z" horiz-adv-x="768" />
<glyph glyph-name="triangle-left" unicode="&#xf044;" d="M384 704L0 320l384-384V704z" horiz-adv-x="384" />
<glyph glyph-name="triangle-right" unicode="&#xf05a;" d="M0-64l384 384L0 704v-768z" horiz-adv-x="384" />
<glyph glyph-name="triangle-up" unicode="&#xf0aa;" d="M768 128L384 512 0 128h768z" horiz-adv-x="768" />
<glyph glyph-name="unfold" unicode="&#xf039;" d="M736 288l160-160c0-35-29-64-64-64H576v64h224L672 256H224L96 128h224v-64H64c-35 0-64 29-64 64l160 160L0 448c0 35 29 64 64 64h256v-64H96l128-128h448l128 128H576v64h256c35 0 64-29 64-64L736 288z m-352 96h128V576h128L448 768 256 576h128v-192z m128-192H384v-192H256l192-192 192 192H512V192z" horiz-adv-x="896" />
<glyph glyph-name="unmute" unicode="&#xf0ba;" d="M704 319c0-70-29-134-75-181l-43 43c35 36 57 84 57 138s-22 103-57 138l43 43c46-46 75-110 75-181zM430 686L192 448H64c-35 0-64-29-64-64v-128c0-35 29-64 64-64h128l238-238c30-30 82-9 82 34V652c0 43-52 64-82 34z m380-5l-43-43c82-82 132-194 132-319 0-124-50-237-132-319l43-43c93 93 150 221 150 362 0 142-57 270-150 362z m-90-90l-44-43c59-59 95-140 95-229s-36-170-95-228l44-43c69 69 112 165 112 271s-43 202-112 272z" horiz-adv-x="1024" />
<glyph glyph-name="unverified" unicode="&#xf0e8;" d="M1003 380l-69 86c-11 14-18 31-20 49l-12 109c-5 45-40 80-85 85l-109 12c-19 2-36 10-50 21l-86 69c-35 28-85 28-120 0l-86-69c-14-11-31-18-49-20l-109-12c-45-5-80-40-85-85l-12-109c-2-19-10-36-21-50l-69-86c-28-35-28-85 0-120l69-86c11-14 18-31 20-49l12-109c5-45 40-80 85-85l109-12c19-2 36-10 50-21l86-69c35-28 85-28 120 0l86 69c14 11 31 18 49 20l109 12c45 5 80 40 85 85l12 109c2 19 10 36 21 50l69 86c28 35 28 85 0 120zM576 96c0-18-14-32-32-32h-64c-17 0-32 14-32 32v64c0 18 15 32 32 32h64c18 0 32-14 32-32v-64z m100 313c-4-11-11-21-19-30-8-10-9-12-21-24-10-11-20-19-33-29-7-6-13-12-18-17s-9-11-12-17-5-12-7-19-2-8-2-16H456c0 14 0 20 2 31 2 12 5 23 9 33 4 9 9 18 16 27 7 8 15 16 26 24 17 12 23 19 31 33s13 24 13 38c0 17-4 29-13 37-8 8-20 12-37 12-6 0-12-1-19-3s-11-6-16-10-9-7-13-13-6-9-6-18H321c0 24 8 36 17 53 10 17 23 32 39 43s35 19 56 24 45 8 70 8c28 0 53-3 75-8 22-6 40-14 56-25 15-11 26-24 35-40 8-16 12-35 12-56 0-14 0-27-5-38z" horiz-adv-x="1024" />
<glyph glyph-name="verified" unicode="&#xf0e6;" d="M1003 380l-69 86c-11 14-18 31-20 49l-12 109c-5 45-40 80-85 85l-109 12c-19 2-36 10-50 21l-86 69c-35 28-85 28-120 0l-86-69c-14-11-31-18-49-20l-109-12c-45-5-80-40-85-85l-12-109c-2-19-10-36-21-50l-69-86c-28-35-28-85 0-120l69-86c11-14 18-31 20-49l12-109c5-45 40-80 85-85l109-12c19-2 36-10 50-21l86-69c35-28 85-28 120 0l86 69c14 11 31 18 49 20l109 12c45 5 80 40 85 85l12 109c2 19 10 36 21 50l69 86c28 35 28 85 0 120zM416 64L192 288l96 96 128-128 320 320 96-99-416-413z" horiz-adv-x="1024" />
<glyph glyph-name="versions" unicode="&#xf064;" d="M832 640H448c-35 0-64-29-64-64v-512c0-35 29-64 64-64h384c35 0 64 29 64 64V576c0 35-29 64-64 64z m-64-512H512V512h256v-384zM256 576h64v-64h-64v-384h64v-64h-64c-35 0-64 29-64 64V512c0 35 29 64 64 64zM64 512h64v-64H64v-256h64v-64H64c-35 0-64 29-64 64V448c0 35 29 64 64 64z" horiz-adv-x="896" />
<glyph glyph-name="watch" unicode="&#xf0e0;" d="M384 320h128v-64H320V512h64v-192z m384 0c0-142-77-266-192-332v-116c0-35-29-64-64-64H256c-35 0-64 29-64 64V-12C77 54 0 178 0 320s77 266 192 332V768c0 35 29 64 64 64h256c35 0 64-29 64-64v-116c115-66 192-190 192-332z m-64 0c0 177-143 320-320 320S64 497 64 320s143-320 320-320 320 143 320 320z" horiz-adv-x="768" />
<glyph glyph-name="x" unicode="&#xf081;" d="M479 320l240-240-95-95-240 240-240-240-95 95 240 240L49 560l95 95 240-240 240 240 95-95-240-240z" horiz-adv-x="768" />
<glyph glyph-name="zap" unicode="&#x26A1;" d="M640 384H384L576 832 0 256h256L64-192 640 384z" horiz-adv-x="640" />
</font>
</defs>
</svg>
