<?xml version="1.0" standalone="no"?>
<!DOCTYPE svg PUBLIC "-//W3C//DTD SVG 1.1//EN" "http://www.w3.org/Graphics/SVG/1.1/DTD/svg11.dtd" >
<svg xmlns="http://www.w3.org/2000/svg">
<metadata></metadata>
<defs>
<font id="algerianregular" horiz-adv-x="1024" >
<font-face units-per-em="2048" ascent="1638" descent="-410" />
<missing-glyph horiz-adv-x="512" />
<glyph horiz-adv-x="2048" />
<glyph horiz-adv-x="2048" />
<glyph unicode="&#xd;" horiz-adv-x="512" />
<glyph unicode=" "  horiz-adv-x="512" />
<glyph unicode="&#x09;" horiz-adv-x="512" />
<glyph unicode="&#xa0;" horiz-adv-x="512" />
<glyph unicode="!" horiz-adv-x="662" d="M55 1090q97 43 141.5 92.5t83.5 155.5q27 -110 69 -165.5t132 -97.5l-11 -17q-94 -147 -132 -279t-47 -345l-1 -15h-33v20q0 179 -56.5 361.5t-145.5 289.5zM153 196q0 54 38 92t91 38q54 0 92 -38t38 -92q0 -53 -38 -91t-92 -38q-53 0 -91 38t-38 91zM202 46l7 7 q64 -38 116 -38q63 0 107.5 43.5t44.5 103.5q0 57 -40 115l9 7q55 -51 55 -128q0 -68 -50.5 -119t-117.5 -51q-81 0 -131 60zM332 393q0 185 62.5 374t164.5 314q-177 103 -217 216l32 -15q73 -110 234 -192l-12 -15q-120 -155 -170 -297.5t-64 -373.5l-1 -11h-29z" />
<glyph unicode="&#x22;" horiz-adv-x="692" d="M68 1365h176l-67 -403h-79zM128 906h96l78 418l23 -12l-78 -426h-84zM366 1365h176l-67 -403h-79zM426 906h96l78 418l24 -12l-78 -426h-85z" />
<glyph unicode="#" horiz-adv-x="1201" d="M63 555v83h257l18 125h-197l-10 28h211l7 57h-238v86h250l61 431h131l-61 -431h58l55 389l26 -8l-53 -381h134l61 431h128l-61 -431h59l55 389l26 -8l-53 -381h138v-86h-237l-29 -210h58l22 153h241l-3 124l20 -22l2 -130h-236l-18 -125h135v-83h-233l-66 -473h-127 l54 388h-135l-66 -470h-130l-19 23h124l67 475h163l8 57h-222l-66 -473h-130l54 388h-197l-10 28h211l8 57h-245zM450 638h58l22 153h163l8 57h-221zM536 638h136l17 125h-135zM647 23h124l67 475h241l-3 124l20 -22l2 -130h-236l-66 -470h-130z" />
<glyph unicode="$" horiz-adv-x="1201" d="M33 140l9 14q115 190 165 338h16q19 -140 103 -225t218 -100v426l-21 6q-198 51 -251.5 79.5t-77.5 94.5l37 -20q30 -56 178 -93l120 -30l15 -4v54l-20 4q-206 43 -279 98q-54 42 -87 113.5t-33 148.5q0 168 113 267t306 99v135h81v-141q34 -6 60 -13v119l26 -19v-100 q23 -5 125 -31q51 -13 88 -13q53 0 99 36l8 -7q-113 -179 -162 -328l-2 -9l-6 1q-39 219 -236 276v-440l60 -16v391q53 -25 75 -45t52 -71h-9l-7 7q-54 50 -85 66v-356l16 -5q167 -48 233 -103q123 -104 123 -272q0 -164 -123.5 -278t-302.5 -114q-9 0 -32 2v-185h-81v108 l-16 3q-79 16 -121 27l-93 23q-63 15 -128 15q-54 0 -106 -22l-13 31q55 21 108 21q69 0 239 -42q61 -14 117 -25l13 -3v57q-75 9 -245 53q-75 20 -126 20q-62 0 -132 -39zM293 445l28 7q18 -97 59.5 -151t137.5 -108v-5q-89 21 -150.5 91t-74.5 166zM299 1120 q0 -161 231 -222l13 -3v353q-70 -6 -111.5 -47.5t-41.5 -105.5q0 -89 107 -156v-7q-136 58 -136 167q0 72 53.5 124t128.5 52v54q-100 0 -172 -61.5t-72 -147.5zM577 -153h107v181q82 0 180 41q125 52 200 158.5t75 232.5q0 160 -108 272v6q137 -100 137 -282 q0 -163 -118.5 -294t-287.5 -154l-44 -6l-9 -2v-180h-110zM623 158h11q3 0 39 4h11v425q159 -35 196 -135h-7q-61 74 -164 99v-389q99 21 153.5 79t54.5 143q0 86 -62 157q-39 45 -81 67t-138 48l-13 4v-502zM909 1025q8 17 9 19l43 94q56 124 109 208l25 -11l-9 -16 q-66 -114 -109 -206l-39 -85l-5 -12z" />
<glyph unicode="%" horiz-adv-x="1282" d="M34 1070q0 152 70.5 243.5t187.5 91.5t190.5 -99.5t73.5 -258.5q0 -156 -67 -242t-188 -86q-125 0 -196 93.5t-71 257.5zM161 1062q0 -273 140 -273q130 0 130 267q0 268 -137 268q-71 0 -102 -61t-31 -201zM206 1072q0 126 23 173t85 47q40 0 67 -42h-8q-26 20 -52 20 q-51 0 -70 -43.5t-19 -157.5q0 -184 67 -255h-13q-45 35 -62.5 90.5t-17.5 167.5zM214 73l713 1290h90l-716 -1290h-87zM239 25h99l718 1315l16 -28l-721 -1314h-96zM284 700h15q27 -9 52 -9q113 0 187.5 98.5t74.5 248.5q0 188 -138 319h15q70 -46 109 -129.5t39 -187.5 q0 -161 -75.5 -262.5t-194.5 -101.5q-49 0 -84 24zM650 354q0 152 70.5 243.5t187.5 91.5q116 0 190 -100t74 -257t-66.5 -243t-188.5 -86q-124 0 -195.5 93.5t-71.5 257.5zM777 346q0 -273 140 -273q130 0 130 266q0 269 -137 269q-71 0 -102 -60.5t-31 -201.5zM822 355 q0 127 23 173.5t85 46.5q40 0 67 -42h-7q-27 20 -53 20q-85 0 -85 -110l-4 -125l3 -50q11 -116 64 -171h-12q-47 38 -64 92t-17 166zM900 -16h15q25 -9 54 -9q113 0 187 98t74 248q0 187 -139 320h15q70 -46 109 -129.5t39 -187.5q0 -161 -75 -262.5t-195 -101.5 q-50 0 -84 24z" />
<glyph unicode="&#x26;" horiz-adv-x="1642" d="M136 502q0 154 97 254t310 167l18 5q-27 98 -27 184q0 134 67 215t177 81q102 0 173.5 -67t71.5 -161q0 -192 -273 -278q106 -271 223 -440q16 33 25 75q-104 159 -171 327l14 6q239 97 239 292q0 70 -48 148l-8 13q80 -70 80 -176q0 -190 -242 -301q70 -166 141 -275 q4 48 4 95q0 74 -9 122l10 -6q134 -103 253 -146q-120 -121 -215 -289q117 -165 227 -165q43 0 73 25l18 16q14 11 26 11q34 0 34 -28q0 -42 -66 -83.5t-131 -41.5q-101 0 -218 75q-143 -155 -366 -155q-207 0 -354 134l6 9q161 -116 348 -116q209 0 342 145q-20 14 -37 29 q-145 -112 -328 -112q-213 0 -348.5 115.5t-135.5 296.5zM342 478q0 -132 81 -220t203 -88q136 0 247 118q-130 178 -259 479q-180 -100 -180 -289q0 -103 52 -175.5t147 -101.5v-13q-100 14 -162.5 92t-62.5 188q0 208 195 325l-5 13q-7 17 -13 34q-115 -46 -179 -142 t-64 -220zM664 1200q0 -104 59 -222q7 4 10 5l26 10q3 1 14 6q-49 116 -49 184q0 100 80 100q32 0 68 -33l-7 -10l-8 5q-27 16 -50 16q-62 0 -62 -82q0 -71 54 -167q108 56 108 172q0 63 -37.5 105t-93.5 42q-112 0 -112 -131zM1127 58v8q66 -39 136 -39q126 0 200 129l4 7 l25 -9q-21 -64 -80.5 -108t-125.5 -44q-93 0 -159 56zM1127 350q73 135 167 230l19 -15q-114 -119 -159 -207l-3 -8l8 -9q85 -98 156 -98q15 0 36 6v-8q-26 -15 -54 -15q-93 0 -170 124z" />
<glyph unicode="'" horiz-adv-x="394" d="M68 1367h176l-67 -403h-79zM128 907h96l78 418l23 -11l-78 -427h-84z" />
<glyph unicode="(" horiz-adv-x="910" d="M130 744q0 230 39.5 372.5t132.5 249.5q72 82 157 121.5t226 55.5v-91q-147 -16 -233 -111q-59 -66 -82 -182.5t-23 -351.5q0 -460 74 -617q31 -68 85 -121q-50 92 -70.5 263.5t-20.5 490.5q0 335 94 461q81 109 204 109h23v115l25 -24v-117q-31 2 -45 2q-102 0 -168 -77 q-61 -70 -83.5 -178t-22.5 -327q0 -547 87 -713q35 -66 156 -85v-89q-188 0 -338 132q-119 106 -168 267t-49 445zM346 2q122 -123 311 -151l61 -9q3 0 18 -3v105l25 -23v-112q-130 15 -240.5 64.5t-174.5 123.5v5z" />
<glyph unicode=")" horiz-adv-x="910" d="M150 -26q90 31 136.5 70t82.5 113q51 105 72.5 270.5t21.5 454.5q0 285 -70 413t-243 159v89q151 -9 286 -105q250 -178 250 -665q0 -568 -220 -759q-132 -115 -316 -135v95zM199 -172q294 54 424.5 272t130.5 654q0 271 -61.5 422.5t-226.5 287.5h17q156 -96 227 -266.5 t71 -448.5q0 -430 -136.5 -657.5t-428.5 -282.5z" />
<glyph unicode="*" horiz-adv-x="717" d="M41 1124l56 172q55 -85 203 -135q0 143 -62 238h181q-65 -81 -65 -235q24 8 52 19q19 104 63 167l7 -38q-34 -53 -62 -125q97 47 147 109l56 -172q-44 17 -92 17q-67 0 -152 -27q84 -116 190 -156l-147 -107q1 12 1 19q0 68 -55 163q-54 -69 -64 -205l-1 -15l-21 26 q9 135 75 212q-9 14 -20 29q-89 -122 -89 -229l-147 107q79 21 159 111q-46 3 -73 3t-72 -5l-31 21q37 5 55 5q54 0 126 -18q15 18 27 35q-80 26 -153 26q-46 0 -92 -12zM430 1079q65 27 133 27q49 0 92 -13l-48 165l28 -16l48 -178q-48 15 -100 15q-50 0 -96 -14 q80 -75 177 -103l-174 -139l-32 3l165 128q-95 29 -193 125z" />
<glyph unicode="+" horiz-adv-x="1202" d="M153 668v125h344v356h125v-356h54v300l28 -17v-283h264v-125h-346v-334h-125v252h-293l-18 28h311v54h-344zM552 253h124v361h350v124l23 -22v-130h-345v-356h-130z" />
<glyph unicode="," horiz-adv-x="536" d="M34 -164l10 9q103 85 103 206q0 86 -53 149q12 4 19 7q109 40 195 97q30 -70 30 -137q0 -249 -296 -345zM80 -219l17 6q169 67 234 165q66 100 66 204q0 51 -18 131l28 -13q17 -62 17 -111q0 -283 -331 -410z" />
<glyph unicode="-" horiz-adv-x="643" d="M0 772h499l43 -118h-500zM85 610h520l-46 137l32 -23l52 -142h-536z" />
<glyph unicode="." horiz-adv-x="546" d="M99 196q0 54 38 92t91 38q54 0 92 -38t38 -92q0 -53 -38 -91t-92 -38q-53 0 -91 38t-38 91zM148 46l7 7q64 -38 116 -38q63 0 107.5 43.5t44.5 103.5q0 57 -40 115l9 7q55 -51 55 -128q0 -68 -50.5 -119t-117.5 -51q-81 0 -131 60z" />
<glyph unicode="/" horiz-adv-x="984" d="M-48 -98l983 1634h94l-983 -1634h-94zM-30 -157h106l1001 1664l18 -21l-1004 -1670h-110z" />
<glyph unicode="0" horiz-adv-x="1202" d="M53 736q0 294 137 471.5t364 177.5q190 0 330 -145q180 -184 180 -542q0 -295 -133 -466t-362 -171q-233 0 -374.5 185t-141.5 490zM250 717q0 -574 324 -574q290 0 290 571q0 313 -72 445.5t-242 132.5q-158 0 -229 -136.5t-71 -438.5zM254 118l9 7q146 -120 319 -120 q253 0 395 183t142 509q0 239 -71.5 395t-220.5 244v9q152 -67 236.5 -234.5t84.5 -401.5q0 -392 -183 -578q-148 -151 -370 -151q-102 0 -177.5 30.5t-163.5 107.5zM314 718q0 279 62.5 403.5t202.5 124.5q131 0 207 -118l-15 -9q-76 99 -197 99q-123 0 -178.5 -122.5 t-55.5 -394.5q0 -238 49 -365t156 -165v-10q-74 12 -139 90q-92 113 -92 467z" />
<glyph unicode="1" horiz-adv-x="1229" d="M229 1188q0 50 47 52q42 2 42 -38q0 -7 -2 -14q-1 -5 -1 -7q1 -16 27 -16q66 0 130 51t96 129h119v-1159l122 -104h-431l127 104v880q-58 -30 -117 -30q-92 0 -142 75h8q61 -50 132 -50q67 0 119 35v62q-68 -50 -159 -50q-50 0 -83.5 23t-33.5 57zM391 27h476l-130 151 v1149l27 -13v-1128l161 -186h-512z" />
<glyph unicode="2" horiz-adv-x="1229" d="M118 82q36 162 129.5 283t268.5 231q158 99 212 157q107 118 107 275q0 124 -71.5 195t-196.5 71q-107 0 -176.5 -60.5t-69.5 -153.5q0 -74 44 -123.5t111 -49.5q66 0 123 60l16 -9q-13 -78 -70.5 -125.5t-139.5 -47.5q-115 0 -189.5 71.5t-74.5 181.5q0 146 119.5 241.5 t300.5 95.5q196 0 331 -110t135 -269q0 -231 -325 -411l-153 -84q-168 -92 -268 -268q-2 -3 -5 -8h64q77 144 285 257l138 74q166 90 241.5 189.5t75.5 227.5q0 192 -168 319l6 8q191 -99 191 -327q0 -261 -328 -439l-137 -75q-220 -119 -267 -234h312q191 0 254 25.5 t85 111.5h20v-280h-930zM197 27h901v299h27v-326h-910zM218 817h8l11 -9q56 -49 92 -65t86 -16q200 0 238 195l24 -9q-34 -108 -96 -158t-162 -50q-131 0 -201 112zM384 1064q0 75 57.5 125.5t143.5 50.5q102 0 169.5 -62t67.5 -156q-59 190 -236 190q-74 0 -125.5 -44 t-51.5 -108q0 -87 91 -127v-13q-51 9 -83.5 49.5t-32.5 94.5z" />
<glyph unicode="3" horiz-adv-x="1229" d="M103 411l9 3q125 41 212 107q-14 -60 -14 -117q0 -269 254 -269q127 0 198 78.5t71 219.5q0 140 -78.5 236.5t-193.5 96.5q-35 0 -107 -15l-11 -3l39 109h9q39 -2 62 -2q105 0 172.5 63.5t67.5 163.5q0 98 -74 167t-179 69q-99 0 -162 -55t-63 -141q0 -55 26.5 -88.5 t69.5 -33.5q30 0 56 24l15 -8q-37 -89 -146 -89q-79 0 -132.5 55t-53.5 135q0 78 68 151q115 122 356 122q178 0 291.5 -84.5t113.5 -216.5q0 -96 -60 -167.5t-162 -96.5q-25 -7 -24 -15q1 -10 21 -17q290 -91 290 -361q0 -176 -126.5 -275t-349.5 -99q-204 0 -317 86 t-148 267zM209 944v6q8 -5 9 -6l34 -25q45 -35 119 -35q48 0 93 27.5t69 70.5l23 -14q-68 -108 -182 -108q-82 0 -159 79zM225 113v6l10 -8q159 -112 364 -112q219 0 359.5 114t140.5 292q0 75 -22 130.5t-85 140.5q-3 4 -8 11l8 9q76 -77 105.5 -140t29.5 -151 q0 -193 -144 -311.5t-380 -118.5q-248 0 -378 138zM373 374q0 44 14 116l1 7h25q-1 -8 -1 -11q-11 -86 -11 -114q0 -145 123 -209v-10q-67 19 -109 80t-42 141zM377 1105q0 64 50.5 107t126.5 43q81 0 139 -40t82 -112h-9l-9 13q-81 114 -202 114q-65 0 -107 -35.5 t-42 -91.5q0 -40 37 -66l4 -4l-11 -16q-59 25 -59 88zM467 690q61 15 103 15q148 0 206 -104h-6q-79 78 -201 78q-51 0 -86 -12l-8 -3zM814 793q102 28 163 100.5t61 165.5q0 129 -118 246q-3 2 -8 8q60 -15 106.5 -91.5t46.5 -159.5q0 -103 -66 -185.5t-165 -103.5z" />
<glyph unicode="4" horiz-adv-x="1229" d="M55 417v34l5 6q144 169 250 433.5t106 454.5h248l-1 -9q-32 -167 -160 -399t-292 -420l-6 -7v-25h52l6 7q178 203 281.5 386.5t179.5 432.5l3 8l21 -13l-4 -13q-150 -497 -455 -808h355v439l6 3q113 72 162 152h19v-594h49v555l27 -6v-549q88 0 133 -28t45 -83 q0 -31 -19 -51.5t-48 -20.5q-64 0 -64 48q0 18 7 27l7 8q2 4 2 8q0 24 -52 24h-18h-69v-230l118 -105h-428l123 99v156h-555l-22 26h577v54h-589zM540 27h470l-130 152v174h27v-165l159 -188h-503zM992 272v12q39 -19 66 -19q35 0 58.5 25t23.5 63q0 26 -7.5 39t-45.5 54 l-6 6q31 -4 55 -34.5t24 -66.5q0 -44 -26 -73.5t-64 -29.5q-37 0 -78 24z" />
<glyph unicode="5" horiz-adv-x="1229" d="M69 365l13 7q147 73 220 132q-9 -56 -9 -107q0 -133 67.5 -206.5t190.5 -73.5q134 0 211 106t77 291q0 172 -75 264t-214 92q-181 0 -292 -172l-64 39v609h523h34q100 0 136 14.5t38 57.5q1 11 -8 12q-3 0 -11 -8q-12 -11 -28 -11q-46 0 -46 45q0 46 48 46q38 0 69 -38 t31 -84q0 -98 -85 -143.5t-268 -45.5h-343v-339l17 13q21 17 39 28v245h291h86l130 15q78 18 128 76t50 129q0 50 -27 106h6l7 -12q35 -61 35 -112q0 -101 -93 -165t-239 -64h-81h-266v-204q93 49 204 49q216 0 348 -127t132 -334q0 -212 -137.5 -335t-374.5 -123 q-194 0 -319 87.5t-151 240.5zM284 39v9q150 -64 296 -64q239 0 380.5 134t141.5 361q0 220 -159 370v7q89 -57 139.5 -159t50.5 -222q0 -233 -152 -377t-397 -144q-161 0 -300 85zM299 671q95 144 262 144q164 0 238 -156h-8l-11 15q-90 118 -221 118q-73 0 -125 -29 t-113 -104zM354 389q0 41 13 90l25 -7q-10 -57 -10 -97q0 -78 45.5 -137t125.5 -85v-12q-89 13 -144 81.5t-55 166.5z" />
<glyph unicode="6" horiz-adv-x="1229" d="M84 715q0 294 149.5 487.5t375.5 193.5q131 0 231.5 -63t153.5 -179l-10 -4l-54 -26q-84 -44 -127 -75q-1 10 -1 15q-19 250 -219 250q-62 0 -122.5 -38t-97.5 -102q-84 -145 -84 -504q0 -289 72 -410q78 -131 213 -131q117 0 194 114t77 286q0 162 -63 254t-174 92 q-85 0 -140 -55t-72 -157q-8 -51 -36 -51q-44 0 -44 58q0 124 92.5 209t228.5 85q174 0 281 -123t107 -325q0 -207 -120 -335t-314 -128q-223 0 -351 167q-66 86 -106 221.5t-40 273.5zM346 526q0 10 2 38q12 -3 30 -3q37 0 51 48l9 31q52 172 168 172q68 0 123.5 -55.5 t74.5 -141.5h-7q-88 172 -195 172q-103 0 -140 -155q-24 -97 -80 -97q-3 0 -10 1q-1 -15 -1 -19q0 -274 224 -352l9 -3v-7q-110 0 -184 106.5t-74 264.5zM348 75v6q149 -84 274 -84q166 0 300 127q154 146 154 366q0 157 -84 317l-6 11q46 -32 81.5 -130t35.5 -192 q0 -238 -162 -392q-141 -134 -318 -134q-144 0 -266 98zM348 867q32 389 250 389q63 0 114 -36.5t66 -91.5l-8 6l-41 42q-54 55 -128 55q-84 0 -142 -72q-50 -62 -82 -251l-2 -9zM840 1012q107 64 243 109q-56 110 -195 213v7q62 -26 128.5 -94t101.5 -140l-12 -5 q-107 -41 -119 -46l-128 -60l-8 -4z" />
<glyph unicode="7" horiz-adv-x="1229" d="M121 992q0 48 44 48q17 0 33 -14q9 -9 16 -9q27 0 27 77l1 55v196h829q-21 -182 -137 -400l-95 -179q-142 -267 -142 -612l2 -72h-268q0 87 37 233q55 220 257 495l125 170q38 52 76 133h-549v-21v-20q0 -199 -139 -199q-49 0 -90 31h45q23 -8 42 -8q116 0 116 167l1 41 v35h585l5 11q11 25 13 42h-661v-43q0 -208 -101 -208q-30 0 -51 15t-21 36zM470 27h297q-7 66 -7 135q0 338 136 582l93 167q107 191 135 383l2 12h23q-19 -193 -134 -402l-99 -178q-126 -228 -126 -544q0 -71 9 -168l2 -14h-316z" />
<glyph unicode="8" horiz-adv-x="1229" d="M71 423q0 116 73.5 202t236.5 159l19 8q-245 106 -245 273q0 106 64.5 179t239.5 165q114 60 169 101l31 23q22 15 21 27q0 8 -8 11l-15 7q-23 10 -23 45q0 58 55 58q27 0 49 -28t22 -63q0 -87 -180 -191l-122 -71q-142 -82 -142 -192q0 -60 39 -101.5t141 -90.5 q85 -41 156 -60q232 69 232 232q0 68 -52.5 115.5t-128.5 47.5q-99 0 -135 -83q-12 -29 -28 -29q-31 0 -31 50q0 58 51.5 97.5t128.5 39.5q117 0 198.5 -70t81.5 -171q0 -83 -52 -147t-175 -131q12 -5 13 -6l47 -20q2 -1 11 -5q212 104 212 283q0 49 -15.5 82.5t-69.5 105.5 q-3 3 -9 11q118 -73 118 -211q0 -83 -59 -162t-153 -121q119 -64 185 -165.5t66 -219.5q0 -166 -133.5 -270t-345.5 -104q-236 0 -387 109.5t-151 280.5zM240 429q0 -149 105.5 -237.5t283.5 -88.5q139 0 219.5 69t80.5 188q0 111 -75.5 192t-238.5 145l-19 7 q-263 -101 -263 -288q0 -144 135 -257v-8q-74 42 -117 114.5t-43 154.5q0 207 259 295l-99 32q-228 -113 -228 -318zM244 80v5l15 -10q78 -50 159.5 -71t199.5 -21q236 0 378 115t142 308q0 128 -78 224l-47 58q-1 1 -9 13q70 -36 115 -120.5t45 -181.5q0 -198 -149.5 -320 t-393.5 -122q-237 0 -377 123zM372 1127q0 77 122 159v-32q-97 -67 -97 -140q0 -67 48 -107l-6 -7q-67 56 -67 127zM595 1142q43 87 136 87q90 0 133 -87h-9q-57 61 -124 61q-80 0 -121 -61h-15zM630 1371q165 98 165 193q0 42 -35 94l10 9q52 -48 52 -101q0 -100 -142 -189 l-10 -6h-40z" />
<glyph unicode="9" horiz-adv-x="1229" d="M100 904q0 197 127.5 331.5t314.5 134.5q216 0 352.5 -175.5t136.5 -453.5q0 -244 -105.5 -448.5t-294.5 -326.5q-191 -124 -401 -124q-61 0 -61 32q0 27 44 32q252 28 407.5 195t203.5 460q-123 -141 -325 -141q-86 0 -165 37t-119 97l1 7q80 -114 279 -114 q222 0 341 172q5 79 5 150q0 250 -57 363q-38 75 -106 120t-143 45q-116 0 -183.5 -94.5t-67.5 -255.5q0 -156 71 -246.5t193 -90.5q180 0 216 172l8 41q5 23 25 23q32 0 32 -55q0 -122 -98.5 -205.5t-241.5 -83.5q-170 0 -279.5 113.5t-109.5 288.5zM224 -209 q240 0 447 137q199 130 311 344.5t112 465.5q0 403 -258 561v11q285 -155 285 -569q0 -423 -279 -708q-121 -125 -277 -196t-308 -71l-26 1zM348 936q0 146 56 226.5t158 80.5q66 0 123.5 -39t87.5 -104q-96 115 -209 115q-187 0 -187 -281q0 -117 44.5 -198t121.5 -104v-7 q-89 15 -142 99.5t-53 211.5z" />
<glyph unicode=":" horiz-adv-x="546" d="M98 196q0 54 38 92t91 38q54 0 92 -38t38 -92q0 -53 -38 -91t-92 -38q-53 0 -91 38t-38 91zM98 933q0 54 38 92t91 38q54 0 92 -38t38 -92q0 -53 -38 -91t-92 -38q-53 0 -91 38t-38 91zM147 46l7 7q64 -38 116 -38q63 0 107.5 43.5t44.5 103.5q0 57 -40 115l9 7 q55 -51 55 -128q0 -68 -50.5 -119t-117.5 -51q-81 0 -131 60zM147 783l7 8q64 -38 116 -38q63 0 107.5 43t44.5 103q0 57 -40 115l9 8q55 -52 55 -128q0 -68 -50.5 -119t-117.5 -51q-81 0 -131 59z" />
<glyph unicode=";" horiz-adv-x="536" d="M34 -164l10 9q103 85 103 206q0 86 -53 149q12 4 19 7q109 40 195 97q30 -70 30 -137q0 -249 -296 -345zM80 -219l17 6q169 67 234 165q66 100 66 204q0 51 -18 131l28 -13q17 -62 17 -111q0 -283 -331 -410zM93 933q0 54 38 92t92 38q53 0 91 -38t38 -92q0 -53 -38 -91 t-91 -38q-54 0 -92 38t-38 91zM142 783l7 8q64 -38 117 -38q62 0 107 43t45 103q0 57 -40 115l8 8q56 -52 56 -128q0 -68 -50.5 -119t-118.5 -51q-81 0 -131 59z" />
<glyph unicode="&#x3c;" d="M85 717v15l855 543v-101l-582 -375l582 -391v-268z" />
<glyph unicode="=" horiz-adv-x="1202" d="M153 497v125h815v-125h-815zM153 839v125h815v-125h-815zM187 443h839v124l23 -22v-130h-844zM187 784h839v124l23 -22v-130h-844z" />
<glyph unicode="&#x3e;" d="M85 140v101l582 374l-582 392v268l855 -577v-16z" />
<glyph unicode="?" horiz-adv-x="889" d="M34 1045q0 127 100.5 207t259.5 80q164 0 273.5 -89t109.5 -222q0 -93 -46 -162.5t-157 -144.5l-106 -71q-52 -35 -92.5 -90.5t-38.5 -89.5l3 -55q1 -14 -9 -25q-9 -10 -24 -9q-23 1 -41 33t-18 73q0 137 152 292q100 102 134.5 161t34.5 129q0 85 -50 137.5t-132 52.5 q-69 0 -119 -43.5t-50 -104.5q0 -65 82 -114q-9 -6 -10 -7l-54 -31q-58 -33 -129 -94q-73 88 -73 187zM154 834l10 7q133 93 208 132q-82 52 -82 135q0 41 33 69.5t82 28.5q95 0 142 -108h-6q-61 81 -139 81q-86 0 -86 -77q0 -83 108 -129l-22 -12q-147 -85 -223 -142l-9 -6 zM270 196q0 54 38 92t91 38q54 0 92 -38t38 -92q0 -53 -38 -91t-92 -38q-53 0 -91 38t-38 91zM319 46l6 7q64 -38 117 -38q62 0 107 43.5t45 103.5q0 56 -40 115l8 7q56 -51 56 -128q0 -68 -50.5 -119t-118.5 -51q-80 0 -130 60zM391 427q0 53 36 97t131 110 q161 110 221 190.5t60 185.5q0 77 -35.5 145.5t-95.5 107.5l7 10q147 -108 147 -275q0 -111 -72 -206q-37 -49 -214 -180l-56 -41q-102 -76 -102 -144q0 -35 27 -82l-36 10q-18 35 -18 72z" />
<glyph unicode="@" horiz-adv-x="1475" d="M48 710q0 330 269 534q186 141 405 141q258 0 429.5 -152.5t171.5 -380.5q0 -186 -102.5 -326.5t-238.5 -140.5q-133 0 -143 137q-86 -144 -218 -144q-114 0 -182 85t-68 227q0 182 109 312t262 130q62 0 138 -30q40 -16 64 -16q32 0 56 16l13 -9l-52 -407l-9 -88 q-3 -31 -3 -46q0 -38 18.5 -62t47.5 -24q11 0 32 5q-46 33 -46 96q0 15 5 55l57 453l23 -27l-54 -429q-4 -31 -4 -47q0 -60 35 -95q79 40 125.5 142t46.5 235q0 193 -144 329t-349 136q-237 0 -406 -183.5t-169 -441.5q0 -240 157 -402t390 -162q203 0 378 126q28 20 50 22 t21 -19q-1 -33 -69 -78q-173 -116 -396 -116q-272 0 -461 187.5t-189 457.5zM223 666q0 257 159 428.5t397 171.5q159 0 230 -63l-21 6q-115 31 -210 31q-226 0 -376.5 -164.5t-150.5 -410.5q0 -156 71.5 -277.5t197.5 -179.5l-9 -11q-288 137 -288 469zM379 111v7 q130 -114 358 -114q154 0 266.5 43.5t206.5 139.5l18 -16q-68 -91 -198 -141.5t-293 -50.5q-118 0 -198.5 29.5t-159.5 102.5zM481 372v4q62 -56 160 -56q92 0 182 86l15 15q64 -99 165 -99q154 0 269.5 155.5t115.5 363.5q0 169 -83.5 295t-240.5 193l2 12 q166 -58 259.5 -190.5t93.5 -309.5q0 -218 -122.5 -383t-284.5 -165q-103 0 -167 100q-102 -97 -206 -97q-92 0 -158 76zM520 665q0 -110 33.5 -172t93.5 -62q72 0 121 73.5t65 206.5l17 149q1 6 1 20q0 91 -34.5 145.5t-91.5 54.5q-91 0 -148 -115.5t-57 -299.5zM572 663 q0 167 54 270.5t141 103.5q28 0 48 -33l-7 -6q-21 19 -41 19q-76 0 -123 -101.5t-47 -264.5t61 -201l-1 -6q-85 23 -85 219z" />
<glyph unicode="A" horiz-adv-x="1550" d="M0 82q143 74 226.5 199t165.5 386l4 14q-53 45 -153 55q55 82 85 171q14 -13 17 -16l45 -42q23 -22 55 -45l18 44l-12 10q-50 44 -84 71l-9 7l16 22q53 -35 102 -81l136 374l-106 114h461l-104 -118l164 -436l40 22l-148 394l106 122l26 -11l-101 -117l140 -373 q12 9 14 11l33 28q30 24 38 34q26 -114 80 -204q-29 2 -42 2q-95 0 -139 -30l181 -491l150 -116h-505l138 116l-111 292q-110 -111 -169 -211l-23 6q59 98 176 219l8 10l-19 44q-119 -99 -197 -230l-18 29q-52 83 -133 189l-10 12q-77 -171 -77 -278q0 -63 21.5 -106.5 t103.5 -145.5q7 -9 22 -28h-540l-20 27h509l-17 21q-66 80 -86.5 124.5t-20.5 104.5q0 102 83 304l-44 46q-13 -32 -33 -94l-33 -102q-27 -82 -27 -136q0 -56 19 -93t80 -101q6 -6 18 -19h-500zM516 740q76 -78 131 -154l46 -64q1 -1 10 -13q9 9 10 11l14 17q3 4 11 13 q-70 108 -163 195l128 338l-28 77zM610 754q9 -10 10 -12l41 -46q33 -36 84 -112l10 -15q43 54 102 107l-137 368zM959 27h531l-180 159l-178 471q34 9 78 9q54 0 120 -9l-12 22q-64 118 -86 213l31 -19q22 -90 110 -247q-22 3 -25 3l-81 7q-55 5 -80 5q-4 0 -20 -1 l167 -443l223 -197h-579z" />
<glyph unicode="B" horiz-adv-x="1324" d="M14 704l44 96l16 -1q39 -3 59 -3q30 0 47 -3v376l-113 60q238 157 534 157q215 0 351 -96.5t136 -249.5q0 -204 -236 -273v-11q24 -6 58 -16q111 26 174.5 106t63.5 193q0 142 -117 252v6l11 -9q131 -101 131 -259q0 -218 -226 -304q98 -45 152.5 -128t54.5 -187 q0 -149 -108 -238.5t-288 -89.5h-716l138 118v433q-59 0 -138 -12l-8 29q89 9 146 9v53h-25q-56 0 -141 -8zM79 27h631q206 0 297 42q202 94 202 327q0 130 -92 236l12 9q107 -83 107 -252q0 -170 -119 -281q-116 -108 -341 -108h-680zM380 160h50v491q71 5 102 5 q166 0 240.5 -31t118.5 -118h-12q-49 69 -123 95.5t-217 26.5l-82 -2v-467h32l145 5q282 20 282 274q0 159 -93 217.5t-348 58.5q-25 0 -95 -4v-551zM380 793q11 1 15 1l18 -1h17v409q86 40 168 40q94 0 148.5 -34t92.5 -116l-28 16q-75 113 -214 113q-78 0 -140 -44v-384 h42q191 0 284.5 63.5t93.5 194.5q0 115 -77.5 185.5t-203.5 70.5q-111 0 -216 -63v-451z" />
<glyph unicode="C" horiz-adv-x="1192" d="M48 723q0 287 159 481t395 194q112 0 255 -55q75 -29 124 -29q53 0 95 29l16 -9l-11 -19q-90 -157 -156 -314l-9 -23l-13 7q-23 152 -107 241t-203 89q-127 0 -212 -111q-107 -138 -107 -468q0 -284 98.5 -445t273.5 -161q140 0 223.5 93.5t99.5 267.5q4 42 34 42 q39 0 39 -65q0 -97 -44 -201q-93 -220 -384 -220q-260 0 -413 182.5t-153 493.5zM336 70v8q128 -84 309 -84q198 0 323 127q61 62 90 139t39 204l2 23l29 -13q-16 -248 -138.5 -377.5t-342.5 -129.5q-167 0 -311 103zM341 742q0 517 284 517q96 0 177 -85v-13 q-91 73 -172 73q-259 0 -259 -494q0 -225 60 -374.5t169 -193.5v-10q-118 24 -188.5 181.5t-70.5 398.5zM953 941l11 25q50 105 88 174l80 142l10 18l23 -14l-11 -19q-109 -186 -174 -339z" />
<glyph unicode="D" horiz-adv-x="1237" d="M41 82l137 105v1063l-107 115h394q289 0 428 -111q207 -164 207 -514q0 -363 -181 -525q-82 -73 -183.5 -103t-269.5 -30h-425zM88 27h366q270 0 410 75q301 160 301 619q0 307 -135 456l-40 44q-2 2 -12 14q212 -133 212 -509q0 -395 -210 -582q-161 -144 -526 -144 h-351zM374 159h55v1056q52 8 95 8q82 0 129.5 -16.5t95.5 -60.5q-106 50 -227 50q-26 0 -68 -4v-1033q112 0 170 18.5t110 71.5q145 147 145 494q0 339 -157 463q-95 75 -301 75h-47v-1122z" />
<glyph unicode="E" horiz-adv-x="1273" d="M0 658q46 160 210 160v427l-152 120h1067l-16 -19q-102 -125 -162 -287q-10 23 -15 34q-55 120 -118 155t-226 35q-75 0 -180 -5v-460h64v407q76 7 145 7q127 0 187 -27t107 -105q-14 10 -20 15q-81 64 -117 76t-142 12q-32 0 -114 -4l-21 -1v-380h184l129 177v-431 l-129 167h-273v-561h64v514h217l26 -26h-218v-488q204 0 290 29t135 114l53 91q3 6 12 22q26 -110 64.5 -176t127.5 -154h-1121l152 116v446q-84 -10 -152 -52l-14 21q61 44 166 57v47q-17 2 -24 2q-102 0 -186 -75zM133 27h1095l34 63q-144 133 -203 284l32 -12 q55 -128 186 -256l16 -16l-52 -90h-1092zM854 533v442l25 -13v-442zM986 1032q67 155 173 284l14 -21l-7 -9q-122 -164 -163 -275z" />
<glyph unicode="F" horiz-adv-x="1129" d="M0 672q45 130 198 142v422l-135 129h1038q-62 -82 -88.5 -129t-67.5 -151l-8 -20q-66 136 -130.5 176t-217.5 40l-57 -1l-97 1l-37 1v-468h61v413l29 1q62 3 132 3q204 0 255 -106q-49 47 -106.5 63.5t-177.5 16.5q-43 0 -107 -5v-386h151l160 169v-419l-168 166h-229 v-504l128 -130h-491l163 130v430q-77 0 -135 -58l-19 21q58 64 154 64v47q-21 2 -30 2q-93 0 -161 -76zM56 27h548l-145 179v467h201l29 -27h-205v-428l176 -218h-579zM842 531v432l26 -15v-432zM976 1012q38 157 183 309l18 -17q-143 -167 -180 -306z" />
<glyph unicode="G" horiz-adv-x="1396" d="M48 716q0 319 190 498q166 157 394 157q102 0 234 -36q135 -37 178 -37q63 0 128 32l-187 -368q-18 157 -98.5 240t-212.5 83q-188 0 -292.5 -146t-104.5 -409q0 -579 474 -579h161v519h-252q-82 0 -117.5 9t-68.5 39v25q36 -27 72 -35.5t117 -8.5h249v54h-278h-45 q-149 0 -149 108q0 42 25 72t60 30q26 0 45.5 -19t19.5 -45q0 -44 -32 -51l-24 -5q-12 -3 -12 -10q0 -13 33 -13h34h660l-138 -135v-493l128 -110h-511h-101q-127 0 -210 31t-168 110q-201 184 -201 493zM345 737q0 237 89 368.5t250 131.5q140 0 228 -116v-6l-18 13 q-114 81 -208 81q-114 0 -197 -81q-60 -60 -86.5 -157t-26.5 -256q0 -202 40 -309t147 -193v-11q-116 69 -167 194.5t-51 340.5zM419 56h21q68 -30 186 -30l50 1h623l-138 153v490l115 116l16 -23l-103 -103v-469l166 -191l-397 3l-360 -4q-34 0 -52 2q-63 7 -127 55z M1037 942l172 337l23 -12l-171 -336z" />
<glyph unicode="H" horiz-adv-x="1286" d="M7 623q59 144 192 170v450l-134 122h470l-136 -133v-432q23 -4 54 -6v428l109 108l20 -18l-103 -102v-417l33 -3q77 -7 149 -7q104 0 179 10v460l-122 112h462l-138 -133v-1042l121 -108h-460l137 117v424q-84 -20 -173 -20q-84 0 -174 9l-14 1v-423l165 -190h-517 l-26 27h488l-136 149v460l29 -2q132 -10 191 -10q96 0 167 26v36q-94 -14 -219 -14q-67 0 -98 3l-101 9q-6 1 -23 2v-496l128 -108h-462l134 117v437q-84 0 -134 -66l-21 10q58 73 155 81v37q-112 0 -177 -85zM742 27h487l-134 151v1042l111 110l16 -21l-102 -99v-1020 l166 -190h-519z" />
<glyph unicode="I" horiz-adv-x="626" d="M41 82l139 115v1043l-139 125h474l-134 -136v-1041l126 -106h-466zM81 27h486l-137 151v1038l113 112l17 -20l-102 -101v-1019l168 -188h-520z" />
<glyph unicode="J" horiz-adv-x="1051" d="M-41 399l299 223q-16 -98 -16 -198q0 -135 53.5 -215.5t144.5 -80.5q181 0 181 287v827l-136 123h471l-135 -135v-743v-32q0 -75 50 -102q-12 -131 -127 -213.5t-286 -82.5q-315 0 -405 247l-14 38q-10 29 -24.5 39.5t-55.5 17.5zM155 85v8q75 -57 141 -78.5t164 -21.5 q174 0 310.5 92.5t167.5 230.5q-46 37 -56 63t-10 105v736l110 110l15 -21l-98 -100v-731v-39l14 -61q13 -26 55 -53q-14 -85 -86 -174q-145 -181 -407 -181q-200 0 -320 115zM303 405q0 102 22 194h26l-2 -13q-19 -113 -19 -164q0 -194 145 -264h-15q-157 46 -157 247z" />
<glyph unicode="K" horiz-adv-x="1386" d="M41 82l137 117v1047l-129 119h468l-139 -132v-604l55 63v533l112 109l15 -22l-103 -100v-489l310 370q67 80 67 144q0 38 -38 72.5t-92 45.5v10h527v-10q-173 -42 -373 -282l-139 -165l369 -717l168 -109h-519l131 98l-248 496l-163 -199v-286l163 -191h-513l-27 27h480 l-127 153v310l174 214l-22 44l-207 -246v-311l121 -109h-458zM783 27h579l-213 145l-366 735l186 210q146 163 301 178l11 -21q-148 -10 -295 -173l-175 -194l353 -716l283 -191h-636z" />
<glyph unicode="L" horiz-adv-x="1121" d="M41 82l138 113v1043l-138 127h478l-141 -137v-1069h8l36 -3h9v1062l108 109l14 -22l-97 -99v-1050q45 -4 86 -4q159 0 240.5 70.5t109.5 232.5q94 -273 193 -373h-1044zM69 27h1058l29 63q-110 135 -176 301l-4 11l32 -12l7 -17q67 -148 160 -273l8 -10l-45 -90h-1044z " />
<glyph unicode="M" horiz-adv-x="1498" d="M-34 27h491l-37 55h-446l21 11q111 61 146.5 123.5t35.5 197.5v827l-132 124h517l-145 -131l283 -837l36 87l-256 742l131 97l21 -17l-125 -88l238 -697l258 713l-122 131h507l-137 -139v-1027l123 -117h-460l139 117v673l-317 -872h-96l-8 27h87l334 930v153l-372 -1027 h-70l-274 807v-529q0 -106 14 -150t66 -97l90 -114h-523zM256 410q0 -165 31.5 -227t130.5 -90l-9 15q-98 68 -98 196v74v591l-55 159v-718zM960 27h484l-139 157v1039l118 81l21 -17l-113 -81v-1008l174 -198h-531z" />
<glyph unicode="N" horiz-adv-x="1230" d="M-20 82q122 44 162 118t40 254v800l-133 111h506l-142 -95l484 -944v120l-415 808l140 95l19 -19l-124 -84l380 -746v467v53q0 174 -28.5 232.5t-140.5 112.5h454q-114 -59 -147 -108q-50 -76 -50 -229v-65v-881h-169l-472 916v-543l-1 -45l12 -144q20 -100 91 -148l8 -7 q-138 46 -138 295l1 94v547l-54 105v-576q0 -274 36 -359t169 -124l87 -93h-542l-16 27h501l-52 55h-466zM839 27h201v994q0 141 36.5 196.5t140.5 73.5l-18 -30q-77 -18 -104.5 -66.5t-27.5 -163.5v-1031h-215z" />
<glyph unicode="O" horiz-adv-x="1278" d="M48 720q0 302 150 480t404 178q243 0 388.5 -184t145.5 -492q0 -291 -143.5 -464t-385.5 -173q-191 0 -340 122q-219 180 -219 533zM264 698q0 -549 333 -549q155 0 236 145.5t81 425.5q0 317 -78 442q-82 130 -234 130q-338 0 -338 -594zM319 102v5q124 -91 311 -91 q251 0 412 189t161 483q0 219 -73.5 383t-208.5 245v11q143 -69 226 -236t83 -386q0 -322 -163.5 -520t-429.5 -198q-170 0 -318 115zM329 676q0 555 292 555q133 0 195 -89l-17 10q-96 53 -176 53q-263 0 -263 -517q0 -378 163 -501l-9 -10q-100 71 -142.5 186.5 t-42.5 312.5z" />
<glyph unicode="P" horiz-adv-x="1211" d="M7 642q61 112 196 112h16v490l-122 121h449q286 0 407 -79q154 -99 154 -275q0 -107 -59 -186t-165 -114t-337 -35h-123v-484l122 -110h-465l139 117v401q-12 1 -17 1q-72 0 -138 -31l-9 18q67 38 120 38h36l8 1v49q-23 3 -31 3q-107 0 -171 -52zM132 27h471l-128 148 v451q87 -5 185 -5q258 0 383 91t125 279q0 78 -24 135.5t-88 131.5q61 -30 98 -105.5t37 -171.5q0 -217 -168 -312q-127 -72 -434 -72q-51 0 -86 2v-413l157 -186h-501zM423 761h13l26 -1q4 0 13 1v446h110q128 0 180.5 -22.5t89.5 -93.5q-37 51 -92.5 71.5t-156.5 20.5 h-103v-422q198 0 290.5 58t92.5 182q0 139 -82.5 202t-265.5 63q-47 0 -115 -4v-501z" />
<glyph unicode="Q" horiz-adv-x="1312" d="M48 725q0 297 153.5 480.5t403.5 183.5q243 0 391.5 -181t148.5 -477q0 -180 -51.5 -307.5t-174.5 -250.5l-9 -9q90 -92 216 -92q68 0 152 38l7 -4q-47 -65 -77 -118l-74 -133l-4 -8q-165 29 -287 177q-103 -48 -207 -48q-167 0 -266 87l4 7q134 -66 248 -66 q111 0 203 40l-6 9q-14 23 -27 35q-93 -35 -192 -35q-238 0 -395 191.5t-157 480.5zM260 710q0 -269 91 -422t250 -153q67 0 130 29q-59 110 -157 110q-7 0 -24 -2l70 86q73 -21 177 -104l12 -10q12 15 28 38l5 7q-67 65 -175 103l14 23q87 -33 164 -91l13 -10 q68 146 68 425q0 570 -337 570q-329 0 -329 -599zM327 661q0 313 69 451t226 138q95 0 161 -54v-7q-9 4 -14 6q-79 36 -135 36q-150 0 -216 -138t-66 -451q0 -359 202 -478h-10q-106 32 -161.5 159.5t-55.5 337.5zM938 1311v6q139 -58 221.5 -218.5t82.5 -373.5 q0 -319 -187 -548q57 -49 177 -59v-6q-38 -6 -57 -6q-89 0 -161 66q200 203 200 556q0 385 -276 583zM1177 -179q34 68 77 131l78 114l5 8l23 -14q-81 -106 -153 -240l-6 -11z" />
<glyph unicode="R" horiz-adv-x="1301" d="M34 584q2 14 20 65q2 4 14 45l3 9q45 -3 70 -3q27 0 50 3v492q-46 28 -95 47l-8 3q237 137 510 137q212 0 349.5 -92t137.5 -234q0 -116 -90 -205.5t-246 -129.5q69 -190 187.5 -370t237.5 -276l-15 -5q-149 -51 -292 -144l-15 -10l-5 32q-64 387 -179 656l-4 10 q-69 -32 -185 -51l-8 -1v-374l176 -188h-517l-16 27h476l-145 154v403l21 3q114 12 191 45q-6 12 -7 15l-10 29q-1 3 -5 12q-62 -18 -234 -39l-11 -2v-446l114 -119h-442l130 119v336l-8 -1q-58 -13 -105 -29l-8 -3l-9 20q44 17 69 23l53 13l8 2v52q-59 0 -147 -26zM390 732 q29 0 55 5v492q55 15 132 15q195 0 265 -128q-74 60 -130 82.5t-134 22.5q-61 0 -107 -12v-472l11 2q197 36 292.5 113.5t95.5 201.5q0 111 -86 183.5t-217 72.5q-105 0 -177 -39v-539zM838 686q306 116 306 354q0 98 -79 214q101 -92 101 -234q0 -230 -293 -349 q63 -206 223 -403q100 -123 253 -221q-229 -61 -430 -186l-9 -6l-20 16q191 125 407 184q-288 192 -453 614z" />
<glyph unicode="S" horiz-adv-x="1136" d="M-20 117q124 187 174 356l18 -5q21 -157 126 -244t275 -87q134 0 213 62t79 167q0 121 -110 200q-79 56 -324 104q-189 37 -274 123t-85 239q0 158 113.5 256.5t295.5 98.5q117 0 273 -42q73 -20 108 -20q49 0 107 34l11 -5q-52 -70 -83 -146q-61 -150 -81 -184l-5 -6 q-4 11 -6 17q-28 90 -46 125t-54 67q-91 81 -207 81q-107 0 -178 -59.5t-71 -149.5q0 -168 253 -229l169 -41q361 -87 361 -381q0 -164 -123.5 -275.5t-305.5 -111.5q-114 0 -255 35l-117 29q-71 17 -117 17q-61 0 -126 -39zM16 59q52 24 106 24q60 0 137 -18l154 -37 q92 -22 194 -22q200 0 340.5 127.5t140.5 308.5q0 153 -108 268v6q136 -103 136 -282q0 -191 -148 -323.5t-360 -132.5q-108 0 -195 22l-160 39q-56 14 -120 14q-57 0 -105 -23zM143 752l34 -19q33 -59 193 -98l161 -40q164 -41 218.5 -70.5t77.5 -89.5l-7 -4 q-45 52 -97.5 76t-201.5 59q-216 50 -290 86.5t-88 99.5zM241 423l27 5q37 -180 198 -255v-8q-186 54 -225 258zM310 1080q0 78 56 127t146 49q86 0 150.5 -36.5t94.5 -102.5l-7 -4q-110 117 -236 117q-76 0 -126 -44t-50 -112q0 -74 101 -152l8 -5l-5 -8q-132 59 -132 171z M855 1004l4 9q29 66 84 172l68 132l5 8l26 -13l-9 -15q-41 -69 -70 -132q-70 -147 -79 -164l-5 -7z" />
<glyph unicode="T" horiz-adv-x="1185" d="M-48 1365h1204q-9 -17 -12 -23l-68 -120q-35 -64 -65 -160l-2 -5l-10 7l-3 13q-29 114 -82.5 158t-163.5 44q-45 0 -90 -4h-12v-1084l118 -109h-457l140 117v995l-71 1q-103 0 -146.5 -40.5t-51.5 -142.5h-26q11 117 60.5 163t163.5 46l60 -1h11v49q-51 6 -97 6 q-129 0 -186 -52.5t-63 -177.5h-12q-43 139 -133 310zM353 27h479l-134 153v1042l54 1q97 0 137.5 -15.5t62.5 -61.5q-77 50 -180 50q-23 0 -48 -3l4 -1005l159 -188h-511zM1048 1019l3 9q74 207 143 288l5 6l20 -20q-69 -88 -145 -292l-4 -10z" />
<glyph unicode="U" horiz-adv-x="1244" d="M34 1365h472l-136 -133v-654l2 -154q0 -149 62 -211.5t209 -62.5q162 0 223 95q49 77 49 330l4 647l-156 143h426l-179 -143v-646q0 -178 -11.5 -256t-45.5 -128q-86 -128 -334 -128q-262 0 -366 128q-83 101 -83 387v664zM286 100l8 -4l35 -20q123 -72 316 -72 q276 0 366 174q48 94 48 378v640l149 122l15 -21l-136 -113v-621q0 -305 -48 -398q-98 -188 -383 -188q-246 0 -370 123zM421 472v750l113 110l14 -21l-98 -99v-743l-1 -69l31 -127q23 -38 87 -92l2 -9q-84 34 -116 99t-32 201z" />
<glyph unicode="V" horiz-adv-x="1269" d="M-48 1365h496l-141 -141l330 -939l39 93l-295 832l102 101l18 -19l-89 -88l277 -791l212 566q95 252 95 353q0 102 -75 175l19 4q291 56 436 170l11 -11q-131 -126 -214 -270t-199 -450l-292 -764l119 -104h-461l132 109l-366 1042zM381 27h479l-126 148l287 749l54 142 q72 184 170 336.5t185 217.5l9 -23q-191 -149 -394 -680l-282 -735l156 -182h-516z" />
<glyph unicode="W" horiz-adv-x="1618" d="M-61 1365h489l-137 -126l229 -824l35 121l-193 688l91 81l23 -16l-83 -74l175 -629l214 779h94l260 -942l32 113l-230 829h28l215 -779l94 338q88 318 88 414q0 107 -100 168q117 37 251 101t200 115l16 -14q-139 -153 -209.5 -305t-166.5 -503l-173 -630l20 -78 l123 -110h-456l131 110l-177 641l-172 -627l172 -206h-511l-20 27h476l-150 173l189 684l-33 119l-205 -749l16 -62l117 -110h-457l136 110l-291 1047zM913 27h475l-162 187l184 670q82 298 157 458.5t200 306.5l23 -17q-120 -132 -197.5 -298t-158.5 -464l-177 -646 l192 -224h-513z" />
<glyph unicode="X" horiz-adv-x="1429" d="M-48 82l234 150l387 490l-312 509l-190 134h528l-131 -114l223 -364l36 46l-187 298l111 106l18 -17l-96 -89l170 -278l217 278l-125 134h440l-220 -144l-320 -407l366 -601l174 -131h-516l127 123l-228 372l-282 -364l164 -213h-547l-15 27h509l-143 186l300 389l-28 44 l-327 -414l122 -150h-459zM783 27h575l-203 197l-354 583l297 384l198 118l15 -20l-195 -115l-283 -367l345 -570l244 -237h-621z" />
<glyph unicode="Y" horiz-adv-x="1314" d="M-48 1365h505l-124 -129l333 -502l32 51l-297 451l105 100l21 -16l-91 -84l277 -427l224 353q97 154 97 230q0 64 -85 146q291 70 478 173l12 6l6 -8l-10 -11q-179 -186 -295 -378q-45 -73 -64 -104l-372 -595v-406l145 -133h-487l144 133v406l-240 369l-52 83 q-71 111 -116.5 162t-134.5 121zM328 27h585l-152 188v399l369 582l58 92q155 247 296 369v-41l-10 -10q-84 -80 -144.5 -160t-179.5 -269l-362 -570v-392l178 -215h-626z" />
<glyph unicode="Z" horiz-adv-x="1312" d="M34 82l741 1113l-20 1l-128 2q-182 0 -251 -39.5t-100 -162.5l-21 23q19 85 82 141q42 38 99 50.5t188 12.5q83 0 153 -3l15 -1l39 57q-70 5 -138 5q-207 0 -284.5 -18t-134.5 -78q-44 -47 -72 -127l-8 17q-50 115 -142 279l-6 11h1086l-802 -1198h63l786 1176l18 -24 l-770 -1152h100l79 2h41q82 0 155.5 31t111.5 81q47 62 80 137q84 -220 178 -336h-1138zM64 27h1147l36 63q-115 140 -181 318l34 -13q51 -151 170 -296l8 -9l-51 -90h-1142z" />
<glyph unicode="[" horiz-adv-x="896" d="M205 -96v1625h460v-98h-237v-1429h57v1375h238v97l23 -26v-99h-232v-1347h151v-98h-460zM239 -149h484v97l23 -26v-99h-489z" />
<glyph unicode="\" horiz-adv-x="1058" d="M-110 1536h94l974 -1634h-94zM46 1507l43 -21l997 -1670h-110l-44 27h106z" />
<glyph unicode="]" horiz-adv-x="896" d="M150 2h237v1347h-186l-18 28h204v54h-237v98h460v-1625h-460v98zM184 -149h484v1624l23 -25v-1627h-489z" />
<glyph unicode="^" d="M-56 578l577 856h16l542 -856h-101l-374 582l-392 -582h-268z" />
<glyph unicode="_" d="M33 -184h957v-117h-957v117z" />
<glyph unicode="`" d="M186 1762h208l138 -192h-117zM469 1527h139l-125 174l43 -9l139 -190h-168z" />
<glyph unicode="{" horiz-adv-x="901" d="M68 700v75q187 12 187 140q0 36 -16 87q-45 146 -45 207q0 174 99 259q68 58 253 58q91 0 123 3v-83q-131 0 -194.5 -60t-63.5 -182q0 -47 11 -80l28 -86q15 -46 15 -88q0 -168 -241 -208v-8q45 -6 78 -16q218 45 218 204q0 43 -15 88l-28 86q-11 33 -11 80 q0 123 63.5 182.5t194.5 59.5v83l27 -13v-83q-131 0 -194.5 -60t-63.5 -183q0 -48 11 -80l28 -86q15 -44 15 -82q0 -155 -228 -202q151 -58 151 -205q0 -41 -14 -92l-26 -96q-14 -49 -14 -99q0 -191 133 -233q-78 65 -78 205q0 50 14 99l26 96q14 51 14 91q0 112 -88 175 q62 -36 88.5 -80t26.5 -109q0 -40 -14 -91l-26 -96q-14 -49 -14 -98q0 -132 73 -198q46 -8 98 -8v-82q-43 4 -126 4q-189 0 -261 70q-87 84 -87 248q0 68 44 236q17 65 17 112q0 35 -23 75q-43 5 -73 5q-13 0 -44 -2l-14 25q34 3 58 3q13 0 48 -4q-45 33 -140 37zM335 -131 q144 -19 311 -19l60 -1h18v100l27 -24v-102q-249 0 -416 41v5z" />
<glyph unicode="|" d="M436 -341v1706h153v-1706h-153z" />
<glyph unicode="}" horiz-adv-x="901" d="M150 -13q135 0 196.5 58t61.5 186q0 49 -14 99l-27 94q-14 52 -14 92q0 145 152 203q-44 21 -80 58q62 -33 112 -46q29 6 67 10v8q-246 40 -246 206q0 42 15 87l29 85q11 33 11 83q0 59 -31 129q-58 46 -183 46l-14 27q111 0 175 -37q-58 72 -210 72v82q59 -3 125 -3 q188 0 258 -58q101 -83 101 -256q0 -61 -46 -206q-16 -50 -16 -86q0 -126 191 -138v-74q-102 -5 -147 -39t-45 -104q0 -41 17 -106q45 -167 45 -235q0 -163 -89 -246q-74 -69 -265 -69l-129 -4v82zM171 -150l150 4q191 0 265 69q89 83 89 246q0 67 -45 235q-17 64 -17 106 q0 70 45 104t147 39v90l28 -27v-91q-102 -5 -147 -38.5t-45 -104.5q0 -42 17 -106q45 -168 45 -235q0 -162 -89 -245q-74 -70 -265 -70l-113 -2l-37 -1zM605 1409q99 -91 99 -251q0 -77 -46 -207q-16 -45 -16 -72q0 -23 21 -68q-49 41 -49 83q0 36 16 85q46 140 46 212 q0 97 -71 218z" />
<glyph unicode="~" horiz-adv-x="1365" d="M265 1269q121 212 277 212q54 0 177 -43q110 -38 158 -38q104 0 187 102l36 -23q-49 -95 -124 -152.5t-150 -57.5q-44 0 -118 24l-58 20l-59 19q-66 21 -116 21q-80 0 -156 -88q-6 -6 -18 -19z" />
<glyph unicode="&#xa1;" horiz-adv-x="635" d="M55 17l11 17q93 147 131 279t48 345v15h34q-1 -17 -1 -20q0 -178 56.5 -360.5t146.5 -290.5q-97 -43 -142 -92.5t-83 -155.5q-27 110 -69.5 165.5t-131.5 97.5zM133 936q0 53 38 91t92 38q53 0 91 -38t38 -91q0 -54 -38 -92t-91 -38q-54 0 -92 38t-38 92zM182 784l6 8 q65 -38 117 -38q62 0 107 43t45 104q0 56 -40 114l8 8q56 -52 56 -128q0 -68 -50.5 -119t-118.5 -51q-81 0 -130 59zM297 -296q45 151 235 256q-84 117 -135 292.5t-51 348.5h28l1 -10q12 -212 54 -348t142 -278l9 -14l-18 -9q-91 -48 -140 -94.5t-93 -128.5z" />
<glyph unicode="&#xa2;" horiz-adv-x="1201" d="M204 723q0 191 93.5 325.5t241.5 156.5v133h76v-133q27 0 62 -8v106l25 -20v-92q33 -10 81 -31q57 -25 87 -25q36 0 61 27l9 -6q-83 -134 -130 -277h-11q0 93 -53 166t-131 86v-801h15q24 0 47 7v730q26 -5 59 -45v-13l-34 20v-685q50 18 88.5 73t46.5 122l4 36 q4 33 30 33q34 0 34 -48q0 -81 -37.5 -152t-97.5 -104q-56 -31 -155 -41v-162h-76v103l-16 5q-65 24 -112 57l-7 16q64 -38 135 -53v37q-154 25 -244.5 148.5t-90.5 308.5zM375 754q0 -164 39 -260t125 -143v696q-89 -63 -89 -280q0 -177 61 -330l8 -18v-8q-95 140 -95 342 q0 251 115 325v50q-164 -50 -164 -374zM573 52h104v174q120 17 195.5 107t75.5 217q0 7 -2 27l29 -15q0 -142 -72 -237t-201 -123v-175h-109zM841 864q56 134 132 268l25 -15l-5 -9q-33 -59 -59 -113l-63 -134l-6 -12z" />
<glyph unicode="&#xa3;" horiz-adv-x="1229" d="M-20 228q0 85 73.5 139t190.5 54q75 0 169 -35l15 -6q2 22 2 38q0 101 -75 201h-238l-40 116h225q-72 120 -72 261q0 175 122 282.5t320 107.5q177 0 296 -89.5t161 -253.5l-249 -51v18q0 134 -65.5 213t-176.5 79q-98 0 -159.5 -48.5t-61.5 -126.5q0 -83 57 -226 l57 -139l10 -27h254l41 -116h-266q4 -25 4 -50q0 -128 -41 -222l44 -23q39 75 39 163l3 75v10h282l-55 163l34 -17l57 -171h-292v-26q0 -110 -43 -209q121 -70 249 -70q99 0 158 54.5t59 144.5q0 42 -14 97h102q25 -100 25 -196q0 -292 -308 -292q-203 0 -413 151 q-135 -139 -280 -139q-82 0 -141 49t-59 117zM1 122h5q82 -109 202 -109q63 0 134 35.5t117 90.5q225 -133 420 -133q167 0 258.5 85.5t91.5 240.5q0 73 -16 173l30 -13l1 -15q12 -99 12 -155q0 -159 -102 -251t-278 -92q-105 0 -185 24t-212 94l-13 7q-134 -114 -267 -114 q-139 0 -198 132zM40 225q0 -43 34 -69t92 -26q145 0 212 126q-103 72 -197 72q-60 0 -100.5 -29.5t-40.5 -73.5zM82 207q0 33 26 55.5t65 22.5q90 0 165 -64l-14 -17q-90 59 -150 59q-72 0 -72 -55q0 -18 17 -47l-16 -5q-21 24 -21 51zM132 572h237l8 -25h-236zM476 1112 q0 65 46.5 105.5t122.5 40.5q151 0 203 -117h-6q-86 92 -195 92q-145 0 -145 -126q0 -67 46 -181q48 -121 63 -164l-18 -6q-117 266 -117 356zM903 924v25l277 55q-21 171 -210 313q69 -25 143 -112q69 -82 99 -221z" />
<glyph unicode="&#xa4;" horiz-adv-x="1202" d="M71 1056l89 89l154 -154q25 14 51 25l-104 103l33 8l99 -100q84 28 171 28q133 0 235 -63l146 146l88 -89l-144 -144q72 -112 72 -240q0 -143 -76 -246l150 -150l-89 -88l-97 97q-105 -68 -250 -68q-115 0 -231 58l-134 -134l-32 7l151 151l6 -7q125 -46 233 -46 q124 0 235 62l-39 38q-103 -51 -219 -51q-126 0 -237 60l-165 -165l-88 89l154 154q-86 101 -86 244t72 238zM295 659q0 -287 264 -287q249 0 249 308q0 150 -58.5 219.5t-184.5 69.5q-270 0 -270 -310zM359 633q0 275 224 275q132 0 195 -90q-112 64 -193 64 q-195 0 -195 -244q0 -172 95 -228l-9 -10q-117 62 -117 233zM945 402q92 117 92 271q0 118 -27 160l-39 61q-1 2 -6 11l130 129l-88 88h33l91 -91l-131 -132q63 -82 63 -233q0 -82 -16 -133t-66 -128l150 -150l-92 -91h-32l87 88z" />
<glyph unicode="&#xa5;" horiz-adv-x="1229" d="M-88 1365h504l-122 -131l335 -500l29 49l-294 451l88 96l20 -15l-76 -81l278 -423l266 423l-128 131h461l-231 -131l-264 -436h62l249 397l214 129l15 -27l-215 -128l-232 -371h51l44 -116h-259l-41 -71v-56h57v56l19 29h287l-44 126l32 -15l51 -140h-310l-7 -9v-47h171 l44 -112h-300v-230l146 -123h-487l141 123v159h-199l-8 24h207v47h-249l-39 112h288v56h-207l-9 29h205l-29 42h-209l-46 116h181l-147 227l-29 42l-63 105q-80 125 -201 193zM361 27h511l-149 186v183h313l-43 126l26 -18l48 -132h-316v-159l171 -213h-551z" />
<glyph unicode="&#xa6;" d="M436 314h153v-655h-153v655zM436 662v703h153v-703h-153z" />
<glyph unicode="&#xa7;" horiz-adv-x="1118" d="M41 -71q103 152 148 294l15 -4q24 -209 219 -257q-125 66 -159 228l27 4q24 -113 88 -178t153 -65q109 0 182.5 60.5t73.5 150.5q0 49 -58.5 85t-215.5 85q-208 66 -278.5 107.5t-81.5 105.5l32 -21q28 -60 184 -112l157 -52q176 -59 237 -106q-41 66 -95.5 95t-250.5 89 q-172 52 -244.5 120t-72.5 178q0 100 63 167t173 85q-179 66 -179 259q0 139 102.5 221t277.5 82q98 0 214 -36q53 -16 80 -16q42 0 90 28l10 -4q-45 -60 -70 -121q-56 -133 -74 -158q-5 18 -8 26q-32 111 -91 160t-159 49q-95 0 -157.5 -51.5t-62.5 -128.5q0 -93 89 -152 q-45 50 -45 110q0 77 56 124.5t146 47.5q127 0 177 -82l-7 -4q-78 61 -167 61q-77 0 -127 -43t-50 -109q0 -53 38.5 -95.5t103.5 -61.5q265 -78 358.5 -151.5t93.5 -201.5q0 -191 -218 -266q164 -89 164 -261q0 -146 -111 -239.5t-286 -93.5q-104 0 -205 30l-82 24 q-50 15 -87 15q-46 0 -103 -34zM87 -132q39 23 83 23q43 0 100 -15l114 -29q68 -17 143 -17q204 0 335.5 106.5t131.5 271.5q0 133 -114 231l-26 17q194 118 194 284q0 137 -127 229v5q156 -85 156 -235q0 -179 -190 -296q136 -88 136 -244q0 -173 -139 -285t-356 -112 q-81 0 -151 19l-114 30q-40 11 -86 11q-45 0 -78 -23zM235 775q0 -100 125 -156q-74 58 -74 140q0 133 188 145l89 -19l13 -16q-64 11 -100 11q-70 0 -116 -36t-46 -90q0 -78 71 -133q47 -35 197 -77l54 -15q93 14 144 60t51 116q0 90 -89 142q-51 30 -229 82q-23 7 -68 20 q-111 -15 -160.5 -56t-49.5 -118zM836 1216q19 56 79 167q14 26 59 112l3 8l27 -13q-92 -152 -144 -284z" />
<glyph unicode="&#xa8;" d="M200 1669q0 40 28 68t68 28t68 -28t28 -68t-28 -68t-68 -28t-68 28t-28 68zM261 1543v7q47 -34 81 -34q49 0 84 34.5t35 83.5q0 39 -38 88q56 -26 56 -99q0 -54 -36 -90.5t-88 -36.5q-59 0 -94 47zM548 1669q0 40 28 68t68 28t68 -28t28 -68t-28 -68t-68 -28t-68 28 t-28 68zM606 1543v7q47 -34 81 -34q49 0 84 34.5t35 83.5q0 39 -38 88q56 -25 56 -99q0 -54 -35.5 -90.5t-88.5 -36.5q-59 0 -94 47z" />
<glyph unicode="&#xa9;" horiz-adv-x="1605" d="M68 720q0 302 189 480t508 178q295 0 486.5 -191.5t191.5 -485.5q0 -290 -183 -463t-489 -173q-238 0 -426 122q-277 179 -277 533zM188 697q0 -273 147 -417.5t425 -144.5q274 0 415.5 149t141.5 437q0 161 -36 265.5t-117 181.5q-147 138 -409 138q-567 0 -567 -609z M246 681q0 571 524 571q220 0 319 -90l-28 10q-149 54 -274 54q-510 0 -510 -537q0 -215 98 -337.5t318 -184.5l-16 -11q-246 74 -330 172q-101 119 -101 353zM388 713q0 173 103 289.5t257 116.5q74 0 166 -33q48 -17 77 -17q38 0 65 17l11 -5l-7 -12q-59 -95 -101 -188 l-7 -14l-8 4q-15 91 -69.5 144.5t-132.5 53.5q-100 0 -153.5 -90t-53.5 -258q0 -170 64 -266.5t178 -96.5q187 0 210 217q2 25 22 25q25 0 25 -39q0 -115 -76 -184t-202 -69q-169 0 -268.5 109.5t-99.5 295.5zM400 102v5q158 -91 394 -91q317 0 516.5 190.5t199.5 494.5 q0 209 -91.5 372.5t-252.5 242.5v11q171 -68 271 -235.5t100 -385.5q0 -323 -203 -521t-534 -198q-213 0 -400 115zM589 314v5q83 -51 201 -51q132 0 207.5 72.5t86.5 209.5l1 14l27 -12q-10 -150 -90 -228t-223 -78q-112 0 -210 68zM592 717q0 310 185 310q62 0 115 -51 v-12q-59 41 -112 41q-160 0 -160 -289q0 -279 141 -336v-11q-77 14 -123 108.5t-46 239.5zM990 836l8 15q40 79 108 190l7 11l22 -13l-8 -11q-67 -105 -113 -204z" />
<glyph unicode="&#xaa;" horiz-adv-x="800" d="M48 517v84h644v-84h-644zM48 904q0 86 78 136q54 35 254 51q105 8 105 93q0 35 -16 67q-35 10 -78 10q-114 0 -191 -122l-21 13q78 125 202 125q45 0 81 -17q-42 49 -135 49q-114 0 -191 -123q-32 61 -77 113q40 7 98 32q95 41 186 41q136 0 197 -51t61 -166v-361l49 -70 h-161q-79 -77 -182 -77q-52 0 -116 31q48 -18 91 -18q106 0 188 86v85q-57 -66 -104 -91t-112 -25q-90 0 -148 53.5t-58 135.5zM82 462h668v83l23 -22v-89h-674zM184 900q0 -52 37 -88q-9 28 -9 50q0 117 156 133q71 6 109 25v18l1 40q-46 -38 -138 -47q-156 -15 -156 -131z M232 840q0 -19 7 -39q31 -11 53 -11q81 0 133 56.5t52 143.5q-44 -12 -89 -16q-156 -14 -156 -134zM520 669h205l-69 97v362q0 63 -12 95t-49 68q50 -30 69 -70t19 -113v-362l69 -97h-204z" />
<glyph unicode="&#xab;" horiz-adv-x="619" d="M34 677l167 278h86l-109 -278l109 -275h-94zM230 352h116l-114 287l159 -312h-130zM241 677l167 278h86l-109 -278l109 -275h-94zM437 352h117l-114 287l110 270l21 -27l-99 -241l126 -314h-129z" />
<glyph unicode="&#xac;" d="M67 436v110h889v-546h-255v436h-634z" />
<glyph unicode="&#xad;" horiz-adv-x="643" d="M0 772h499l43 -118h-500zM85 610h520l-46 137l32 -23l52 -142h-536z" />
<glyph unicode="&#xae;" horiz-adv-x="1605" d="M68 720q0 302 189 480t508 178q295 0 486.5 -191.5t191.5 -485.5q0 -290 -183 -463t-489 -173q-238 0 -426 122q-277 179 -277 533zM188 697q0 -273 147 -417.5t425 -144.5q274 0 415.5 149t141.5 437q0 161 -36 265.5t-117 181.5q-147 138 -409 138q-567 0 -567 -609z M246 681q0 571 524 571q220 0 319 -90l-28 10q-149 54 -274 54q-510 0 -510 -537q0 -215 98 -337.5t318 -184.5l-16 -11q-246 74 -330 172q-101 119 -101 353zM393 671l1 7q1 4 11 30q2 6 8 26q1 1 2 5q27 -2 42 -2q17 0 27 1l3 1v280q-28 17 -57 27l-5 2q144 78 306 78 q127 0 209.5 -52.5t82.5 -133.5q0 -66 -54.5 -117.5t-147.5 -73.5q36 -104 100 -205.5t128 -156.5l6 -6l-8 -3q-88 -33 -163 -82l-8 -5l-3 17q-34 209 -98 366q-31 -15 -89 -23l-3 -1v-207l137 -140h-342l-23 27h311l-107 107v230l10 1q59 8 98 26q-4 8 -4 10l-7 19 q-1 2 -3 7q-32 -8 -69 -13l-71 -9l-6 -1v-254l67 -68h-265l79 68v177q-8 -2 -11 -3q-22 -6 -38 -12q-4 -2 -11 -5l-12 23q27 10 38 13l23 5q3 1 11 3v34q-32 0 -89 -15zM400 102v5q158 -91 394 -91q317 0 516.5 190.5t199.5 494.5q0 209 -91.5 372.5t-252.5 242.5v11 q171 -68 271 -235.5t100 -385.5q0 -323 -203 -521t-534 -198q-213 0 -400 115zM607 755q23 0 52 9v267q31 8 73 8q107 0 145 -65q-65 44 -131 44q-35 0 -65 -7v-245q213 39 213 173q0 63 -51.5 104.5t-130.5 41.5q-63 0 -105 -22v-308zM888 721q184 64 184 206q0 52 -48 118 q68 -54 68 -139q0 -133 -169 -201q32 -107 102.5 -199t166.5 -153q-130 -36 -248 -110l-6 -4l-25 18q104 67 226 102q-156 107 -247 352z" />
<glyph unicode="&#xb0;" horiz-adv-x="621" d="M53 1178q0 85 60 145t145 60t145 -60t60 -145t-60 -145t-145 -60t-145 60t-60 145zM137 971l8 6q75 -56 152 -56q93 0 159.5 67t66.5 161q0 112 -102 186l12 9q53 -28 84.5 -82.5t31.5 -118.5q0 -99 -70 -171t-166 -72q-105 0 -176 71zM138 1177q0 -49 35.5 -84.5 t84.5 -35.5q51 0 86 35t35 85q0 51 -35 86t-86 35q-49 0 -84.5 -35.5t-35.5 -85.5z" />
<glyph unicode="&#xb1;" horiz-adv-x="1202" d="M153 142v125h523v347h350v124l23 -22v-130h-345v-319h264v-125h-815zM153 668v125h344v356h125v-356h54v300l28 -17v-283h264v-125h-346v-334h-125v252h-293l-18 28h311v54h-344zM187 88h839v124l23 -22v-130h-844z" />
<glyph unicode="&#xb2;" horiz-adv-x="751" d="M63 628q41 178 242 297q114 67 153.5 118t39.5 131q0 73 -42.5 116t-114.5 43q-69 0 -112 -35.5t-43 -93.5q0 -45 26.5 -74.5t67.5 -29.5q42 0 75 36l10 -5q-8 -48 -43 -76.5t-86 -28.5q-69 0 -114 43.5t-45 109.5q0 88 72.5 145.5t183.5 57.5q118 0 200 -66t82 -162 q0 -131 -198 -233l-92 -47q-102 -53 -148 -128l-15 -25l-3 -4h52q48 81 174 145l84 42q193 97 193 236q0 107 -103 188l3 4q124 -56 124 -193q0 -155 -199 -252l-84 -40q-124 -61 -159 -124l-3 -6h169q116 0 155 15.5t50 66.5h13v-171h-565zM100 567h572v204l23 -13v-212 h-573zM133 1042q60 -54 117 -54q121 0 145 117l21 -10l-3 -10q-37 -114 -154 -114q-86 0 -126 71zM232 1189q0 47 32 76t83 29q62 0 103 -35.5t41 -89.5l-4 8q-45 94 -139 94q-41 0 -67.5 -23.5t-26.5 -59.5q0 -45 37 -70l4 -3v-7q-63 13 -63 81z" />
<glyph unicode="&#xb3;" horiz-adv-x="751" d="M58 811l6 2q77 25 128 64q-8 -31 -8 -63q0 -154 155 -154q163 0 163 171q0 83 -48.5 137.5t-121.5 54.5q-14 0 -55 -6l-6 -1l27 61q19 -1 33 -1q64 0 105 36t41 92t-45 95t-109 39q-60 0 -98.5 -31t-38.5 -79q0 -66 59 -66q14 0 32 13l10 -5q-38 -51 -89 -51 q-47 0 -79.5 31t-32.5 75q0 67 74 111.5t184 44.5q108 0 177 -48.5t69 -124.5q0 -53 -39 -97t-96 -54q-14 -3 -14 -8q0 -6 13 -10q176 -50 176 -209q0 -103 -77.5 -159.5t-218.5 -56.5q-234 0 -276 197zM118 1128l6 -4l20 -15q28 -21 73 -21q64 0 98 59l21 -13 q-41 -60 -111 -60q-50 0 -105 49zM146 618l6 -3l49 -30q59 -37 172 -37q133 0 218 68t85 174q0 75 -37 125l-27 37q-2 2 -5 6l4 6q89 -81 89 -178q0 -115 -87.5 -185.5t-230.5 -70.5q-72 0 -137.5 23t-94.5 58zM224 1226q0 38 31 63.5t77 25.5q104 0 134 -91l-5 -7 q-4 6 -6 8q-48 68 -119 68q-88 0 -88 -76q0 -19 18 -34l-6 -6q-36 13 -36 49zM229 795q0 23 8 65l23 -6l-3 -18q-5 -32 -5 -42q0 -71 66 -116l2 -7q-91 21 -91 124zM286 974q36 8 63 8q85 0 119 -60q-51 38 -113 38q-19 0 -58 -8zM516 1025q123 41 123 155q0 76 -71 146 q-2 2 -5 6l7 -2q38 -15 65.5 -60t27.5 -92q0 -114 -125 -164z" />
<glyph unicode="&#xb4;" d="M445 1566l147 198h203l-244 -198h-106zM465 1510h123l246 199l19 -24l-251 -203h-113z" />
<glyph unicode="&#xb5;" horiz-adv-x="944" d="M-9 -289q0 44 16 128q60 314 60 698v400h203v-588q0 -147 36 -209t120 -62q108 0 209 139v720h201v-683q0 -97 16.5 -130t64.5 -33q28 0 61 17v-36l-211 -93q-4 -2 -9 -2q-73 0 -101 118q-3 13 -10 40q-103 -103 -157.5 -134.5t-130.5 -31.5q-161 0 -224 177l-1 -43 q0 -107 44 -288q16 -66 16 -104q0 -45 -29 -75t-72 -30q-45 0 -73.5 29.5t-28.5 75.5z" />
<glyph unicode="&#xb6;" horiz-adv-x="1301" d="M48 1202q0 101 48 179.5t130 112.5q86 35 273 35h753q-8 -11 -12 -17l-67 -89q-10 -13 -53 -92q-5 -10 -15 -28l-10 7q-22 64 -47 86q-53 47 -114 47q-7 0 -26 -5v-1540h-110v1461h-107v-1543h-158l-22 27h154v1543h133v53h-184v-1541h-115v859l-20 1q-183 0 -285 74v26 q108 -70 259 -70h27l19 -1v53q-230 0 -340.5 89t-110.5 273zM805 -157h153v1543q17 1 24 1q66 0 86 -63q-28 36 -65 36q-9 0 -16 -2l-3 -1v-1541h-157zM1158 1279l3 6q74 151 143 210l5 4l20 -20q-69 -63 -136 -194l-13 -25z" />
<glyph unicode="&#xb8;" d="M307 -299l8 4q59 38 98 70q0 -94 62 -94q28 0 49.5 38.5t21.5 90.5q0 67 -57 67q-29 0 -50 -29l-18 16q31 78 47 151h103l-21 -88q10 1 15 1q39 0 63.5 -34.5t24.5 -89.5q0 -87 -53.5 -144.5t-136.5 -57.5q-99 0 -156 99zM399 -405q55 -32 118 -32q68 0 124 64t56 142 q0 67 -49 125l9 6q67 -53 67 -156q0 -80 -58.5 -141t-135.5 -61q-88 0 -131 44v9zM475 -180q8 34 45 34v-10q-18 -10 -31 -39zM479 -273l24 -11l-19 -12zM598 -62l13 45l22 -23l-11 -36z" />
<glyph unicode="&#xb9;" horiz-adv-x="751" d="M157 1278q0 31 29 31q24 0 25 -21q0 -4 -1 -9l-1 -5l7 -8q4 -2 10 -2q40 0 79.5 29t58.5 72h72v-670l61 -67h-249l77 67v492q-36 -17 -71 -17q-45 0 -83 56l7 -3l37 -24q11 -7 38 -7q32 0 72 19v48q-41 -30 -97 -30q-71 0 -71 49zM269 567h303l-93 105v670l23 -11v-658 l111 -127h-331z" />
<glyph unicode="&#xba;" horiz-adv-x="829" d="M48 1043q0 151 91 240t244 89q148 0 235.5 -92.5t87.5 -248.5q0 -143 -87.5 -229t-232.5 -86q-149 0 -243.5 91.5t-94.5 235.5zM62 517v84h645v-84h-645zM96 462h668v83l23 -22v-89h-674zM171 726l7 7q86 -71 209 -71q166 0 270 100t104 260q0 78 -23.5 147t-55.5 89 l-7 3l7 7q99 -88 99 -256t-102 -269t-272 -101q-137 0 -236 84zM191 1033q0 -165 82 -223q-41 71 -41 184q0 274 193 274q55 0 99 -31q-52 72 -140 72q-193 0 -193 -276zM252 973q0 -103 33 -171q46 -23 95 -23q179 0 179 275q0 106 -30 172q-45 22 -84 22q-193 0 -193 -275 z" />
<glyph unicode="&#xbb;" horiz-adv-x="626" d="M46 397l108 289l-108 266h94l163 -283l-163 -272h-94zM79 352h95l32 53l13 -36l-27 -46h-101zM250 397l108 289l-108 266h93l164 -283l-164 -272h-93zM283 352h95l178 300l-158 276l48 -35l142 -241l-192 -329h-102z" />
<glyph unicode="&#xbc;" horiz-adv-x="1756" d="M157 1278q0 31 29 31q24 0 25 -21q0 -4 -1 -9l-1 -5l7 -8q4 -2 10 -2q40 0 79.5 29t58.5 72h72v-670l61 -67h-249l77 67v492q-36 -17 -71 -17q-45 0 -83 56l7 -3l37 -24q11 -7 38 -7q32 0 72 19v48q-41 -30 -97 -30q-71 0 -71 49zM269 567h303l-93 105v670l23 -11v-658 l111 -127h-331zM442 75l791 1311h95l-792 -1311h-94zM460 16h106l810 1341l17 -21l-812 -1347h-110zM1038 287v20q99 119 159 258.5t60 253.5h150v-5q-20 -99 -95 -226t-183 -245v-14h40q111 118 169.5 213.5t112.5 250.5l21 -10l-1 -7q-18 -71 -83.5 -190.5t-118.5 -177.5 l-70 -74l-6 -6h202v224q70 40 103 92h11v-316h50v293l23 -12v-281q81 0 81 -67q0 -43 -41 -43q-39 0 -39 29q0 11 4 16l5 5q1 2 1 4q0 15 -31 15h-11h-42v-138l76 -67h-265l75 63v53h-296l-13 22h309v67h-357zM1352 20h300l-93 105v91l23 -11v-79l110 -126h-319zM1620 202 q24 -11 40 -11q50 0 50 50q0 31 -36 64q55 -18 55 -67q0 -25 -16 -43.5t-37 -18.5q-20 0 -53 17z" />
<glyph unicode="&#xbd;" horiz-adv-x="1756" d="M157 1278q0 31 29 31q24 0 25 -21q0 -4 -1 -9l-1 -5l7 -8q4 -2 10 -2q40 0 79.5 29t58.5 72h72v-670l61 -67h-249l77 67v492q-36 -17 -71 -17q-45 0 -83 56l7 -3l37 -24q11 -7 38 -7q32 0 72 19v48q-41 -30 -97 -30q-71 0 -71 49zM269 567h303l-93 105v670l23 -11v-658 l111 -127h-331zM442 75l791 1311h95l-792 -1311h-94zM460 16h106l810 1341l17 -21l-812 -1347h-110zM1067 82q41 178 242 297q114 67 153.5 118t39.5 131q0 73 -42.5 116t-114.5 43q-69 0 -112 -35.5t-43 -92.5q0 -45 26.5 -74.5t67.5 -29.5q42 0 75 35l10 -5 q-8 -47 -43 -75.5t-86 -28.5q-68 0 -113.5 43.5t-45.5 109.5q0 87 72.5 144.5t183.5 57.5q118 0 200 -66t82 -162q0 -131 -198 -233l-92 -47q-102 -53 -148 -128l-15 -25l-3 -4h52q48 81 174 145l84 42q193 97 193 236q0 107 -103 188l3 4q124 -56 124 -193 q0 -155 -199 -252l-84 -40q-124 -61 -159 -124l-3 -6h169q116 0 155 15.5t50 66.5h13v-171h-565zM1104 21h572v204l23 -13v-212h-573zM1137 496q60 -54 117 -54q121 0 144 117l22 -10l-3 -10q-37 -115 -154 -115q-86 0 -126 72zM1236 643q0 46 32 75t83 29q62 0 103 -35.5 t41 -88.5l-4 8q-45 93 -139 93q-41 0 -67.5 -23t-26.5 -59q0 -48 41 -73v-7q-63 13 -63 81z" />
<glyph unicode="&#xbe;" horiz-adv-x="1756" d="M58 811l6 2q77 25 128 64q-8 -31 -8 -63q0 -154 155 -154q163 0 163 171q0 83 -48.5 137.5t-121.5 54.5q-14 0 -55 -6l-6 -1l27 61q19 -1 33 -1q64 0 105 36t41 92t-45 95t-109 39q-60 0 -98.5 -31t-38.5 -79q0 -66 59 -66q14 0 32 13l10 -5q-38 -51 -89 -51 q-47 0 -79.5 31t-32.5 75q0 67 74 111.5t184 44.5q108 0 177 -48.5t69 -124.5q0 -53 -39 -97t-96 -54q-14 -3 -14 -8q0 -6 13 -10q176 -50 176 -209q0 -103 -77.5 -159.5t-218.5 -56.5q-234 0 -276 197zM118 1128l6 -4l20 -15q28 -21 73 -21q64 0 98 59l21 -13 q-41 -60 -111 -60q-50 0 -105 49zM146 618l6 -3l49 -30q59 -37 172 -37q133 0 218 68t85 174q0 75 -37 125l-27 37q-2 2 -5 6l4 6q89 -81 89 -178q0 -115 -87.5 -185.5t-230.5 -70.5q-72 0 -137.5 23t-94.5 58zM224 1226q0 38 31 63.5t77 25.5q104 0 134 -91l-5 -7 q-4 6 -6 8q-48 68 -119 68q-88 0 -88 -76q0 -19 18 -34l-6 -6q-36 13 -36 49zM229 795q0 23 8 65l23 -6l-3 -18q-5 -32 -5 -42q0 -71 66 -116l2 -7q-91 21 -91 124zM286 974q36 8 63 8q85 0 119 -60q-51 38 -113 38q-19 0 -58 -8zM442 75l792 1311h94l-791 -1311h-95z M460 16h106l811 1341l17 -21l-813 -1347h-110zM516 1025q123 41 123 155q0 76 -71 146q-2 2 -5 6l7 -2q38 -15 65.5 -60t27.5 -92q0 -114 -125 -164zM1039 287v20q99 119 158.5 258.5t59.5 253.5h150v-5q-20 -99 -94.5 -226t-182.5 -245v-14h39q111 117 169.5 213t112.5 251 l21 -10l-1 -7q-18 -70 -85 -193t-117 -175l-69 -74l-6 -6h201v224q70 40 103 92h11v-316h51v293l23 -12v-281q81 0 81 -67q0 -43 -41 -43q-39 0 -39 29q0 11 4 16l4 5q2 2 2 4q0 15 -31 15h-11h-43v-138l77 -67h-266l75 63v53h-296l-12 22h308v67h-356zM1353 20h300l-93 105 v91l23 -11v-79l110 -126h-319zM1621 202q24 -11 40 -11q49 0 49 50q0 31 -35 64q55 -18 55 -67q0 -25 -16 -43.5t-37 -18.5t-54 17z" />
<glyph unicode="&#xbf;" horiz-adv-x="889" d="M34 106q0 93 46 163t157 145l106 71q52 35 93 91t38 89l-4 55q-1 14 9 25q10 10 24 9q24 -1 42 -33.5t18 -72.5q0 -137 -152 -292q-100 -103 -134.5 -162t-34.5 -129q0 -85 50 -137.5t131 -52.5q70 0 120 43.5t50 104.5q0 66 -83 114q10 6 11 7l54 31q57 33 129 94 q73 -89 73 -187q0 -127 -100.5 -207t-259.5 -80q-164 0 -273.5 89t-109.5 222zM74 -125l7 12q150 -146 347 -146q178 0 295.5 94.5t117.5 238.5q0 53 -15 86l-42 95l-4 10q89 -78 89 -205q0 -145 -125.5 -246t-304.5 -101q-224 0 -365 162zM270 936q0 53 38 91t91 38 q54 0 92 -38t38 -91q0 -54 -38 -92t-92 -38q-53 0 -91 38t-38 92zM289 51q0 57 26.5 103.5t97.5 116.5q115 113 161 198.5t46 187.5q0 92 -76 135l7 10q43 71 43 110q0 44 -40 103l8 8q57 -53 57 -112q0 -46 -45 -125q70 -57 70 -150t-53 -195q-29 -55 -159 -193l-41 -44 q-75 -80 -75 -152q0 -58 40 -137l-35 30q-32 51 -32 106zM319 784l6 8q56 -33 117 -38l7 -29q-87 8 -130 59z" />
<glyph unicode="&#xc0;" horiz-adv-x="1550" d="M0 82q143 74 226.5 199t165.5 386l4 14q-53 45 -153 55q55 82 85 171q14 -13 17 -16l45 -42q23 -22 55 -45l18 44l-12 10q-50 44 -84 71l-9 7l16 22q53 -35 102 -81l136 374l-106 114h461l-104 -118l164 -436l40 22l-148 394l106 122l26 -11l-101 -117l140 -373 q12 9 14 11l33 28q30 24 38 34q26 -114 80 -204q-29 2 -42 2q-95 0 -139 -30l181 -491l150 -116h-505l138 116l-111 292q-110 -111 -169 -211l-23 6q59 98 176 219l8 10l-19 44q-119 -99 -197 -230l-18 29q-52 83 -133 189l-10 12q-77 -171 -77 -278q0 -63 21.5 -106.5 t103.5 -145.5q7 -9 22 -28h-540l-20 27h509l-17 21q-66 80 -86.5 124.5t-20.5 104.5q0 102 83 304l-44 46q-13 -32 -33 -94l-33 -102q-27 -82 -27 -136q0 -56 19 -93t80 -101q6 -6 18 -19h-500zM449 1762h208l138 -192h-117zM516 740q76 -78 131 -154l46 -64q1 -1 10 -13 q9 9 10 11l14 17q3 4 11 13q-70 108 -163 195l128 338l-28 77zM610 754q9 -10 10 -12l41 -46q33 -36 84 -112l10 -15q43 54 102 107l-137 368zM732 1527h139l-125 174l43 -9l139 -190h-168zM959 27h531l-180 159l-178 471q34 9 78 9q54 0 120 -9l-12 22q-64 118 -86 213 l31 -19q22 -90 110 -247q-22 3 -25 3l-81 7q-55 5 -80 5q-4 0 -20 -1l167 -443l223 -197h-579z" />
<glyph unicode="&#xc1;" horiz-adv-x="1550" d="M0 82q143 74 226.5 199t165.5 386l4 14q-53 45 -153 55q55 82 85 171q14 -13 17 -16l45 -42q23 -22 55 -45l18 44l-12 10q-50 44 -84 71l-9 7l16 22q53 -35 102 -81l136 374l-106 114h461l-104 -118l164 -436l40 22l-148 394l106 122l26 -11l-101 -117l140 -373 q12 9 14 11l33 28q30 24 38 34q26 -114 80 -204q-29 2 -42 2q-95 0 -139 -30l181 -491l150 -116h-505l138 116l-111 292q-110 -111 -169 -211l-23 6q59 98 176 219l8 10l-19 44q-119 -99 -197 -230l-18 29q-52 83 -133 189l-10 12q-77 -171 -77 -278q0 -63 21.5 -106.5 t103.5 -145.5q7 -9 22 -28h-540l-20 27h509l-17 21q-66 80 -86.5 124.5t-20.5 104.5q0 102 83 304l-44 46q-13 -32 -33 -94l-33 -102q-27 -82 -27 -136q0 -56 19 -93t80 -101q6 -6 18 -19h-500zM516 740q76 -78 131 -154l46 -64q1 -1 10 -13q9 9 10 11l14 17q3 4 11 13 q-70 108 -163 195l128 338l-28 77zM610 754q9 -10 10 -12l41 -46q33 -36 84 -112l10 -15q43 54 102 107l-137 368zM708 1566l146 198h204l-244 -198h-106zM728 1510h123l246 199l19 -24l-251 -203h-114zM959 27h531l-180 159l-178 471q34 9 78 9q54 0 120 -9l-12 22 q-64 118 -86 213l31 -19q22 -90 110 -247q-22 3 -25 3l-81 7q-55 5 -80 5q-4 0 -20 -1l167 -443l223 -197h-579z" />
<glyph unicode="&#xc2;" horiz-adv-x="1550" d="M0 82q143 74 226.5 199t165.5 386l4 14q-53 45 -153 55q55 82 85 171q14 -13 17 -16l45 -42q23 -22 55 -45l18 44l-12 10q-50 44 -84 71l-9 7l16 22q53 -35 102 -81l136 374l-106 114h461l-104 -118l164 -436l40 22l-148 394l106 122l26 -11l-101 -117l140 -373 q12 9 14 11l33 28q30 24 38 34q26 -114 80 -204q-29 2 -42 2q-95 0 -139 -30l181 -491l150 -116h-505l138 116l-111 292q-110 -111 -169 -211l-23 6q59 98 176 219l8 10l-19 44q-119 -99 -197 -230l-18 29q-52 83 -133 189l-10 12q-77 -171 -77 -278q0 -63 21.5 -106.5 t103.5 -145.5q7 -9 22 -28h-540l-20 27h509l-17 21q-66 80 -86.5 124.5t-20.5 104.5q0 102 83 304l-44 46q-13 -32 -33 -94l-33 -102q-27 -82 -27 -136q0 -56 19 -93t80 -101q6 -6 18 -19h-500zM500 1567l168 200h129l172 -200h-160l-63 71l-120 -140h-87l-18 21h96l115 135 l-26 29l-101 -116h-105zM516 740q76 -78 131 -154l46 -64q1 -1 10 -13q9 9 10 11l14 17q3 4 11 13q-70 108 -163 195l128 338l-28 77zM610 754q9 -10 10 -12l41 -46q33 -36 84 -112l10 -15q43 54 102 107l-137 368zM855 1519h200l-173 202l37 -8l186 -215h-231zM959 27h531 l-180 159l-178 471q34 9 78 9q54 0 120 -9l-12 22q-64 118 -86 213l31 -19q22 -90 110 -247q-22 3 -25 3l-81 7q-55 5 -80 5q-4 0 -20 -1l167 -443l223 -197h-579z" />
<glyph unicode="&#xc3;" horiz-adv-x="1550" d="M0 82q143 74 226.5 199t165.5 386l4 14q-53 45 -153 55q55 82 85 171q14 -13 17 -16l45 -42q23 -22 55 -45l18 44l-12 10q-50 44 -84 71l-9 7l16 22q53 -35 102 -81l136 374l-106 114h461l-104 -118l164 -436l40 22l-148 394l106 122l26 -11l-101 -117l140 -373 q12 9 14 11l33 28q30 24 38 34q26 -114 80 -204q-29 2 -42 2q-95 0 -139 -30l181 -491l150 -116h-505l138 116l-111 292q-110 -111 -169 -211l-23 6q59 98 176 219l8 10l-19 44q-119 -99 -197 -230l-18 29q-52 83 -133 189l-10 12q-77 -171 -77 -278q0 -63 21.5 -106.5 t103.5 -145.5q7 -9 22 -28h-540l-20 27h509l-17 21q-66 80 -86.5 124.5t-20.5 104.5q0 102 83 304l-44 46q-13 -32 -33 -94l-33 -102q-27 -82 -27 -136q0 -56 19 -93t80 -101q6 -6 18 -19h-500zM446 1577q0 86 52 144t129 58q66 0 190 -73q48 -29 76 -29q27 0 45 20.5 t18 49.5q0 5 -1 15h73q2 -19 2 -26q0 -72 -45.5 -122.5t-109.5 -50.5q-71 0 -187 58q-67 34 -96 34q-65 0 -76 -78h-70zM475 1526h79q11 56 46 81v-30q-21 -29 -29 -74h-80zM516 740q76 -78 131 -154l46 -64q1 -1 10 -13q9 9 10 11l14 17q3 4 11 13q-70 108 -163 195 l128 338l-28 77zM610 754q9 -10 10 -12l41 -46q33 -36 84 -112l10 -15q43 54 102 107l-137 368zM808 1531l12 13q57 -21 97 -21q148 0 166 199l1 12l21 -18q0 -91 -53 -153t-130 -62q-50 0 -114 30zM959 27h531l-180 159l-178 471q34 9 78 9q54 0 120 -9l-12 22 q-64 118 -86 213l31 -19q22 -90 110 -247q-22 3 -25 3l-81 7q-55 5 -80 5q-4 0 -20 -1l167 -443l223 -197h-579z" />
<glyph unicode="&#xc4;" horiz-adv-x="1550" d="M0 82q143 74 226.5 199t165.5 386l4 14q-53 45 -153 55q55 82 85 171q14 -13 17 -16l45 -42q23 -22 55 -45l18 44l-12 10q-50 44 -84 71l-9 7l16 22q53 -35 102 -81l136 374l-106 114h461l-104 -118l164 -436l40 22l-148 394l106 122l26 -11l-101 -117l140 -373 q12 9 14 11l33 28q30 24 38 34q26 -114 80 -204q-29 2 -42 2q-95 0 -139 -30l181 -491l150 -116h-505l138 116l-111 292q-110 -111 -169 -211l-23 6q59 98 176 219l8 10l-19 44q-119 -99 -197 -230l-18 29q-52 83 -133 189l-10 12q-77 -171 -77 -278q0 -63 21.5 -106.5 t103.5 -145.5q7 -9 22 -28h-540l-20 27h509l-17 21q-66 80 -86.5 124.5t-20.5 104.5q0 102 83 304l-44 46q-13 -32 -33 -94l-33 -102q-27 -82 -27 -136q0 -56 19 -93t80 -101q6 -6 18 -19h-500zM477 1669q0 40 28 68t68 28t68 -28t28 -68t-28 -68t-68 -28t-68 28t-28 68z M516 740q76 -78 131 -154l46 -64q1 -1 10 -13q9 9 10 11l14 17q3 4 11 13q-70 108 -163 195l128 338l-28 77zM538 1543v7q47 -34 81 -34q49 0 84 34.5t35 83.5q0 39 -38 88q56 -25 56 -99q0 -54 -36 -90.5t-88 -36.5q-59 0 -94 47zM610 754q9 -10 10 -12l41 -46 q33 -36 84 -112l10 -15q43 54 102 107l-137 368zM825 1669q0 39 28 67.5t68 28.5t68 -28t28 -68t-28 -68t-68 -28t-68 28t-28 68zM883 1543v7q47 -34 81 -34q49 0 84 34.5t35 83.5q0 39 -38 88q56 -25 56 -99q0 -54 -35.5 -90.5t-88.5 -36.5q-59 0 -94 47zM959 27h531 l-180 159l-178 471q34 9 78 9q54 0 120 -9l-12 22q-64 118 -86 213l31 -19q22 -90 110 -247q-22 3 -25 3l-81 7q-55 5 -80 5q-4 0 -20 -1l167 -443l223 -197h-579z" />
<glyph unicode="&#xc5;" horiz-adv-x="1550" d="M0 82q143 74 226.5 199t165.5 386l4 14q-53 45 -153 55q55 82 85 171q14 -13 17 -16l45 -42q23 -22 55 -45l18 44l-12 10q-50 44 -84 71l-9 7l16 22q53 -35 102 -81l136 374l-106 114h461l-104 -118l164 -436l40 22l-148 394l106 122l26 -11l-101 -117l140 -373 q12 9 14 11l33 28q30 24 38 34q26 -114 80 -204q-29 2 -42 2q-95 0 -139 -30l181 -491l150 -116h-505l138 116l-111 292q-110 -111 -169 -211l-23 6q59 98 176 219l8 10l-19 44q-119 -99 -197 -230l-18 29q-52 83 -133 189l-10 12q-77 -171 -77 -278q0 -63 21.5 -106.5 t103.5 -145.5q7 -9 22 -28h-540l-20 27h509l-17 21q-66 80 -86.5 124.5t-20.5 104.5q0 102 83 304l-44 46q-13 -32 -33 -94l-33 -102q-27 -82 -27 -136q0 -56 19 -93t80 -101q6 -6 18 -19h-500zM516 740q76 -78 131 -154l46 -64q1 -1 10 -13q9 9 10 11l14 17q3 4 11 13 q-70 108 -163 195l128 338l-28 77zM589 1676q0 59 42 101t102 42q59 0 101 -41.5t42 -101.5t-42 -101.5t-101 -41.5q-60 0 -102 41.5t-42 101.5zM610 754q9 -10 10 -12l41 -46q33 -36 84 -112l10 -15q43 54 102 107l-137 368zM658 1522l8 7q57 -48 116 -48q65 0 111.5 47 t46.5 112q0 84 -81 140l11 9q91 -47 91 -149q0 -73 -49 -125t-119 -52q-81 0 -135 59zM668 1676q0 -27 19 -46t46 -19t46 19t19 46q0 26 -19 45t-46 19t-46 -19t-19 -45zM959 27h531l-180 159l-178 471q34 9 78 9q54 0 120 -9l-12 22q-64 118 -86 213l31 -19 q22 -90 110 -247q-22 3 -25 3l-81 7q-55 5 -80 5q-4 0 -20 -1l167 -443l223 -197h-579z" />
<glyph unicode="&#xc6;" horiz-adv-x="2062" d="M-34 82q103 38 205 144.5t237 316.5l100 154q-51 29 -91 38l-32 7q-3 1 -11 3l101 148q7 -8 9 -10l24 -27q20 -22 39 -38l20 -17q2 -2 9 -8l25 36q-7 6 -8 8l-37 42l-42 49l-6 8l13 27l10 -10l38 -42l46 -47l6 -6l244 373l-154 134h1190q-118 -152 -172 -298q-4 10 -6 16 q-47 119 -95 154.5t-163 35.5h-91h-193v-444h62v393q53 3 109 3q165 0 229 -20.5t101 -84.5q-9 6 -14 9q-64 45 -120.5 56t-215.5 11l-62 -1v-366h200l130 181v-460l-139 188h-280v-568h62v516h218l26 -26h-217v-490l13 1l158 -3l81 4q131 14 197 66t91 161 q49 -150 105 -232l37 -55q5 -8 20 -30h-1146l167 145v226l-117 -147l-11 29l128 158v92l-167 -213q-30 32 -95 114q-47 59 -86 98l-7 7l-98 -154q-71 -111 -71 -197q0 -57 25 -97.5t116 -131.5l11 -11h-601l-15 27h567l-55 55h-551zM388 263q0 -106 116 -163q-62 57 -62 133 q0 108 99 257l78 117q-19 21 -43 40l-89 -134q-99 -149 -99 -250zM634 735l193 -209l39 45l-158 177l286 427v93zM742 749l143 -158l109 126v408zM877 27h1142l31 50l-5 6q-128 163 -159 298l32 -10l3 -8l37 -86q30 -66 65 -113l51 -67q2 -3 9 -12l-51 -85h-1143zM1645 520 v469l26 -13v-469zM1768 1047q68 173 169 274l9 -21q-83 -94 -158 -259l-5 -10z" />
<glyph unicode="&#xc7;" horiz-adv-x="1213" d="M48 711q0 296 157.5 491.5t396.5 195.5q112 0 255 -55q75 -29 124 -29q53 0 95 29l16 -9l-11 -19q-90 -157 -156 -314l-9 -23l-12 7q-24 152 -107.5 241t-203.5 89q-126 0 -211 -111q-107 -138 -107 -468q0 -285 98.5 -445.5t272.5 -160.5q141 0 224.5 93.5t98.5 267.5 q4 42 34 42q39 0 39 -61q0 -82 -30.5 -169t-76.5 -136q-99 -105 -270 -118l-20 -83q102 0 102 -125q0 -87 -54 -144.5t-135 -57.5q-100 0 -157 99l8 5l35 22q25 16 64 47q0 -94 61 -94q28 0 49.5 39t21.5 91q0 67 -56 67q-30 0 -50 -30l-18 16q13 34 25 71l2 7 q-102 16 -207 91v8q94 -62 214 -75q5 16 11 40l1 6q-240 24 -377 200t-137 462zM341 742q0 250 73.5 383.5t211.5 133.5q95 0 176 -85v-13q-91 73 -172 73q-259 0 -259 -494q0 -225 60.5 -375.5t168.5 -192.5l1 -10q-119 24 -189.5 181t-70.5 399zM494 -367q56 -32 110 -32 q74 0 131 62.5t57 143.5q0 68 -49 125l8 5q68 -53 68 -155q0 -83 -59.5 -142.5t-141.5 -59.5q-78 0 -124 44v9zM570 -142q7 34 45 34v-10q-18 -10 -32 -39zM574 -235l23 -11l-18 -12zM730 5q90 7 177 66q91 61 134.5 151t55.5 242l2 23l29 -13q-27 -419 -362 -491l-10 -2z M953 941l11 25q50 105 88 174l80 142l10 18l23 -14l-11 -19q-109 -186 -174 -339z" />
<glyph unicode="&#xc8;" horiz-adv-x="1273" d="M0 658q46 160 210 160v427l-152 120h1067l-16 -19q-102 -125 -162 -287q-10 23 -15 34q-55 120 -118 155t-226 35q-75 0 -180 -5v-460h64v407q76 7 145 7q127 0 187 -27t107 -105q-14 10 -20 15q-81 64 -117 76t-142 12q-32 0 -114 -4l-21 -1v-380h184l129 177v-431 l-129 167h-273v-561h64v514h217l26 -26h-218v-488q204 0 290 29t135 114l53 91q3 6 12 22q26 -110 64.5 -176t127.5 -154h-1121l152 116v446q-84 -10 -152 -52l-14 21q61 44 166 57v47q-17 2 -24 2q-102 0 -186 -75zM133 27h1095l34 63q-144 133 -203 284l32 -12 q55 -128 186 -256l16 -16l-52 -90h-1092zM242 1762h208l138 -192h-117zM525 1527h139l-125 174l43 -9l139 -190h-168zM854 533v442l25 -13v-442zM986 1032q67 155 173 284l14 -21l-7 -9q-122 -164 -163 -275z" />
<glyph unicode="&#xc9;" horiz-adv-x="1273" d="M0 658q46 160 210 160v427l-152 120h1067l-16 -19q-102 -125 -162 -287q-10 23 -15 34q-55 120 -118 155t-226 35q-75 0 -180 -5v-460h64v407q76 7 145 7q127 0 187 -27t107 -105q-14 10 -20 15q-81 64 -117 76t-142 12q-32 0 -114 -4l-21 -1v-380h184l129 177v-431 l-129 167h-273v-561h64v514h217l26 -26h-218v-488q204 0 290 29t135 114l53 91q3 6 12 22q26 -110 64.5 -176t127.5 -154h-1121l152 116v446q-84 -10 -152 -52l-14 21q61 44 166 57v47q-17 2 -24 2q-102 0 -186 -75zM133 27h1095l34 63q-144 133 -203 284l32 -12 q55 -128 186 -256l16 -16l-52 -90h-1092zM378 1566l147 198h203l-244 -198h-106zM398 1510h123l246 199l19 -24l-251 -203h-114zM854 533v442l25 -13v-442zM986 1032q67 155 173 284l14 -21l-7 -9q-122 -164 -163 -275z" />
<glyph unicode="&#xca;" horiz-adv-x="1273" d="M0 658q46 160 210 160v427l-152 120h1067l-16 -19q-102 -125 -162 -287q-10 23 -15 34q-55 120 -118 155t-226 35q-75 0 -180 -5v-460h64v407q76 7 145 7q127 0 187 -27t107 -105q-14 10 -20 15q-81 64 -117 76t-142 12q-32 0 -114 -4l-21 -1v-380h184l129 177v-431 l-129 167h-273v-561h64v514h217l26 -26h-218v-488q204 0 290 29t135 114l53 91q3 6 12 22q26 -110 64.5 -176t127.5 -154h-1121l152 116v446q-84 -10 -152 -52l-14 21q61 44 166 57v47q-17 2 -24 2q-102 0 -186 -75zM133 27h1095l34 63q-144 133 -203 284l32 -12 q55 -128 186 -256l16 -16l-52 -90h-1092zM361 1567l168 200h130l172 -200h-161l-63 71l-120 -140h-87l-18 21h96l115 135l-25 29l-102 -116h-105zM717 1519h199l-173 202l37 -8l186 -215h-231zM854 533v442l25 -13v-442zM986 1032q67 155 173 284l14 -21l-7 -9 q-122 -164 -163 -275z" />
<glyph unicode="&#xcb;" horiz-adv-x="1273" d="M0 658q46 160 210 160v427l-152 120h1067l-16 -19q-102 -125 -162 -287q-10 23 -15 34q-55 120 -118 155t-226 35q-75 0 -180 -5v-460h64v407q76 7 145 7q127 0 187 -27t107 -105q-14 10 -20 15q-81 64 -117 76t-142 12q-32 0 -114 -4l-21 -1v-380h184l129 177v-431 l-129 167h-273v-561h64v514h217l26 -26h-218v-488q204 0 290 29t135 114l53 91q3 6 12 22q26 -110 64.5 -176t127.5 -154h-1121l152 116v446q-84 -10 -152 -52l-14 21q61 44 166 57v47q-17 2 -24 2q-102 0 -186 -75zM133 27h1095l34 63q-144 133 -203 284l32 -12 q55 -128 186 -256l16 -16l-52 -90h-1092zM325 1669q0 40 28 68t68 28t68 -28t28 -68t-28 -68t-68 -28t-68 28t-28 68zM385 1543v7q48 -34 82 -34q48 0 83 34.5t35 83.5q0 38 -37 88q55 -26 55 -99q0 -54 -35.5 -90.5t-88.5 -36.5q-59 0 -94 47zM672 1669q0 40 28 68t68 28 t68 -28t28 -68t-28 -68t-68 -28t-68 28t-28 68zM730 1543v7q48 -34 82 -34q49 0 83.5 34.5t34.5 83.5q0 38 -37 88q55 -25 55 -99q0 -54 -35.5 -90.5t-88.5 -36.5q-58 0 -94 47zM854 533v442l25 -13v-442zM986 1032q67 155 173 284l14 -21l-7 -9q-122 -164 -163 -275z" />
<glyph unicode="&#xcc;" horiz-adv-x="626" d="M-13 1762h208l138 -192h-117zM41 82l139 115v1043l-139 125h474l-134 -136v-1041l126 -106h-466zM81 27h486l-137 151v1038l113 112l17 -20l-102 -101v-1019l168 -188h-520zM270 1527h139l-125 174l43 -9l139 -190h-168z" />
<glyph unicode="&#xcd;" horiz-adv-x="626" d="M41 82l139 115v1043l-139 125h474l-134 -136v-1041l126 -106h-466zM81 27h486l-137 151v1038l113 112l17 -20l-102 -101v-1019l168 -188h-520zM246 1566l146 198h204l-244 -198h-106zM266 1510h123l246 199l19 -24l-251 -203h-114z" />
<glyph unicode="&#xce;" horiz-adv-x="626" d="M38 1567l168 200h130l172 -200h-161l-63 71l-120 -140h-87l-18 21h96l115 135l-26 29l-101 -116h-105zM42 82l139 115v1043l-139 125h474l-134 -136v-1041l126 -106h-466zM82 27h486l-137 151v1038l113 112l17 -20l-102 -101v-1019l168 -188h-520zM393 1519h200l-173 202 l37 -8l186 -215h-231z" />
<glyph unicode="&#xcf;" horiz-adv-x="627" d="M15 1669q0 40 28 68t68 28t68 -28t28 -68t-28 -68t-68 -28t-68 28t-28 68zM41 82l139 115v1043l-139 125h474l-134 -136v-1041l126 -106h-466zM76 1543v7q47 -34 81 -34q49 0 84 34.5t35 83.5q0 39 -38 88q56 -26 56 -99q0 -54 -36 -90.5t-88 -36.5q-59 0 -94 47zM81 27 h486l-137 151v1038l113 112l17 -20l-102 -101v-1019l168 -188h-520zM336 1669q0 40 28 68t68 28t68 -28t28 -68t-28 -68t-68 -28t-68 28t-28 68zM393 1543v7q48 -34 82 -34q49 0 84 34.5t35 83.5q0 39 -38 88q56 -25 56 -99q0 -54 -36 -90.5t-88 -36.5q-59 0 -95 47z" />
<glyph unicode="&#xd0;" horiz-adv-x="1237" d="M18 820h160v433l-108 112h413q313 0 465 -156.5t152 -479.5q0 -331 -151.5 -489t-468.5 -158h-440l138 105v470h-78l-10 26h88v45h-125zM88 27h396q349 0 515 170.5t166 527.5q0 179 -40 288t-147 223q212 -137 212 -510q0 -369 -172 -547.5t-527 -178.5h-388zM374 159 h56v524h283l-41 105l28 -12l47 -119h-292v-498q22 -1 27 -1q209 0 300 151q98 162 98 423q0 265 -100 413q-91 134 -364 134l-42 -1v-458h56v394q38 8 99 8q133 0 218 -76q-114 48 -226 48q-32 0 -66 -4v-370h159l32 -92h-272v-569z" />
<glyph unicode="&#xd1;" horiz-adv-x="1230" d="M-20 82q122 44 162 118t40 254v800l-133 111h506l-142 -95l484 -944v120l-415 808l140 95l19 -19l-124 -84l380 -746v467v53q0 174 -28.5 232.5t-140.5 112.5h454q-114 -59 -147 -108q-50 -76 -50 -229v-65v-881h-169l-472 916v-543l-1 -45l12 -144q20 -100 91 -148l8 -7 q-138 46 -138 295l1 94v547l-54 105v-576q0 -274 36 -359t169 -124l87 -93h-542l-16 27h501l-52 55h-466zM285 1577q0 86 52.5 144t129.5 58q65 0 189 -73q48 -29 76 -29q27 0 45 20.5t18 49.5q0 6 -1 15h73q2 -19 2 -26q0 -72 -45.5 -122.5t-109.5 -50.5q-71 0 -187 58 q-67 34 -95 34q-66 0 -76 -78h-71zM314 1526h79q11 56 46 81v-30q-21 -29 -29 -74h-80zM647 1531l13 13q56 -21 96 -21q148 0 166 199l1 12l21 -18q0 -91 -53 -153t-130 -62q-50 0 -114 30zM839 27h201v994q0 141 36.5 196.5t140.5 73.5l-18 -30q-77 -18 -104.5 -66.5 t-27.5 -163.5v-1031h-215z" />
<glyph unicode="&#xd2;" horiz-adv-x="1278" d="M48 720q0 302 150 480t404 178q243 0 388.5 -184t145.5 -492q0 -291 -143.5 -464t-385.5 -173q-191 0 -340 122q-219 180 -219 533zM264 698q0 -549 333 -549q155 0 236 145.5t81 425.5q0 317 -78 442q-82 130 -234 130q-338 0 -338 -594zM313 1762h208l138 -192h-117z M319 102v5q124 -91 311 -91q251 0 412 189t161 483q0 219 -73.5 383t-208.5 245v11q143 -69 226 -236t83 -386q0 -322 -163.5 -520t-429.5 -198q-170 0 -318 115zM329 676q0 555 292 555q133 0 195 -89l-17 10q-96 53 -176 53q-263 0 -263 -517q0 -378 163 -501l-9 -10 q-100 71 -142.5 186.5t-42.5 312.5zM596 1527h139l-125 174l43 -9l139 -190h-168z" />
<glyph unicode="&#xd3;" horiz-adv-x="1278" d="M48 720q0 302 150 480t404 178q243 0 388.5 -184t145.5 -492q0 -291 -143.5 -464t-385.5 -173q-191 0 -340 122q-219 180 -219 533zM264 698q0 -549 333 -549q155 0 236 145.5t81 425.5q0 317 -78 442q-82 130 -234 130q-338 0 -338 -594zM319 102v5q124 -91 311 -91 q251 0 412 189t161 483q0 219 -73.5 383t-208.5 245v11q143 -69 226 -236t83 -386q0 -322 -163.5 -520t-429.5 -198q-170 0 -318 115zM329 676q0 555 292 555q133 0 195 -89l-17 10q-96 53 -176 53q-263 0 -263 -517q0 -378 163 -501l-9 -10q-100 71 -142.5 186.5 t-42.5 312.5zM572 1566l146 198h204l-244 -198h-106zM592 1510h123l246 199l19 -24l-251 -203h-114z" />
<glyph unicode="&#xd4;" horiz-adv-x="1278" d="M48 720q0 302 150 480t404 178q243 0 388.5 -184t145.5 -492q0 -291 -143.5 -464t-385.5 -173q-191 0 -340 122q-219 180 -219 533zM264 698q0 -549 333 -549q155 0 236 145.5t81 425.5q0 317 -78 442q-82 130 -234 130q-338 0 -338 -594zM319 102v5q124 -91 311 -91 q251 0 412 189t161 483q0 219 -73.5 383t-208.5 245v11q143 -69 226 -236t83 -386q0 -322 -163.5 -520t-429.5 -198q-170 0 -318 115zM329 676q0 555 292 555q133 0 195 -89l-17 10q-96 53 -176 53q-263 0 -263 -517q0 -378 163 -501l-9 -10q-100 71 -142.5 186.5 t-42.5 312.5zM364 1567l168 200h129l172 -200h-160l-63 71l-120 -140h-87l-18 21h96l115 135l-26 29l-101 -116h-105zM719 1519h200l-173 202l37 -8l186 -215h-232z" />
<glyph unicode="&#xd5;" horiz-adv-x="1278" d="M48 720q0 302 150 480t404 178q243 0 388.5 -184t145.5 -492q0 -291 -143.5 -464t-385.5 -173q-191 0 -340 122q-219 180 -219 533zM264 698q0 -549 333 -549q155 0 236 145.5t81 425.5q0 317 -78 442q-82 130 -234 130q-338 0 -338 -594zM309 1577q0 86 52 144t129 58 q66 0 190 -73q48 -29 76 -29q27 0 45 20.5t18 49.5q0 5 -1 15h73q2 -19 2 -26q0 -72 -45.5 -122.5t-109.5 -50.5q-71 0 -187 58q-67 34 -96 34q-65 0 -76 -78h-70zM319 102v5q124 -91 311 -91q251 0 412 189t161 483q0 219 -73.5 383t-208.5 245v11q143 -69 226 -236 t83 -386q0 -322 -163.5 -520t-429.5 -198q-170 0 -318 115zM329 676q0 555 292 555q133 0 195 -89l-17 10q-96 53 -176 53q-263 0 -263 -517q0 -378 163 -501l-9 -10q-100 71 -142.5 186.5t-42.5 312.5zM338 1526h79q11 56 46 81v-30q-21 -29 -29 -74h-80zM671 1531l12 13 q57 -21 97 -21q148 0 166 199l1 12l21 -18q0 -91 -53 -153t-130 -62q-51 0 -114 30z" />
<glyph unicode="&#xd6;" horiz-adv-x="1278" d="M48 720q0 302 150 480t404 178q243 0 388.5 -184t145.5 -492q0 -291 -143.5 -464t-385.5 -173q-191 0 -340 122q-219 180 -219 533zM264 698q0 -549 333 -549q155 0 236 145.5t81 425.5q0 317 -78 442q-82 130 -234 130q-338 0 -338 -594zM319 102v5q124 -91 311 -91 q251 0 412 189t161 483q0 219 -73.5 383t-208.5 245v11q143 -69 226 -236t83 -386q0 -322 -163.5 -520t-429.5 -198q-170 0 -318 115zM327 1669q0 39 28 67.5t68 28.5t68 -28t28 -68t-28 -68t-68 -28t-68 28t-28 68zM329 676q0 555 292 555q133 0 195 -89l-17 10 q-96 53 -176 53q-263 0 -263 -517q0 -378 163 -501l-9 -10q-100 71 -142.5 186.5t-42.5 312.5zM388 1543v7q47 -34 81 -34q49 0 84 34.5t35 83.5q0 39 -37 88q55 -26 55 -99q0 -54 -35.5 -90.5t-88.5 -36.5q-59 0 -94 47zM675 1669q0 40 28 68t68 28t68 -28t28 -68t-28 -68 t-68 -28t-68 28t-28 68zM733 1543v7q47 -34 81 -34q49 0 84 34.5t35 83.5q0 39 -37 88q55 -25 55 -99q0 -54 -35.5 -90.5t-88.5 -36.5q-59 0 -94 47z" />
<glyph unicode="&#xd7;" horiz-adv-x="1202" d="M196 981l89 88l270 -270l21 21l-207 207l32 7l195 -194l223 222l88 -88l-263 -264l255 -255l-88 -89l-198 198l-254 -254l-32 7l266 266l-38 39l-263 -263l-88 89l263 262zM703 693l266 266l-88 88h33l91 -91l-262 -263l252 -252l-91 -91h-33l88 88z" />
<glyph unicode="&#xd8;" horiz-adv-x="1280" d="M47 728q0 290 152 470.5t397 180.5q160 0 279 -78l43 76h96l-75 -130q87 -73 142.5 -226t55.5 -320q0 -287 -143 -461.5t-379 -174.5q-179 0 -318 103l-64 -105h-95l95 157q-186 181 -186 508zM87 -24l17 28h157l61 103q168 -91 302 -91q259 0 420.5 190t161.5 494 q0 171 -54 316t-149 231l65 111l19 -22l-53 -89q198 -197 198 -553q0 -311 -167 -508.5t-430 -197.5q-152 0 -295 97l-63 -109h-190zM266 706q0 -242 48 -349l41 70l-2 14q-23 134 -23 245q0 546 294 546q93 0 172 -64l17 28q-79 98 -215 98q-332 0 -332 -588zM358 270 q86 -121 244 -121q154 0 233.5 143.5t79.5 421.5q0 161 -24 291l-440 -735q31 -48 75 -82l-10 -11q-62 42 -95 93l461 778q-7 29 -23 69zM359 688q0 -135 19 -224l409 692q-61 51 -154 51q-274 0 -274 -519z" />
<glyph unicode="&#xd9;" horiz-adv-x="1244" d="M34 1365h472l-136 -133v-654l2 -154q0 -149 62 -211.5t209 -62.5q162 0 223 95q49 77 49 330l4 647l-156 143h426l-179 -143v-646q0 -178 -11.5 -256t-45.5 -128q-86 -128 -334 -128q-262 0 -366 128q-83 101 -83 387v664zM286 100l8 -4l35 -20q123 -72 316 -72 q276 0 366 174q48 94 48 378v640l149 122l15 -21l-136 -113v-621q0 -305 -48 -398q-98 -188 -383 -188q-246 0 -370 123zM350 1762h208l138 -192h-117zM421 472v750l113 110l14 -21l-98 -99v-743l-1 -69l31 -127q23 -38 87 -92l2 -9q-84 34 -116 99t-32 201zM633 1527h140 l-125 174l42 -9l139 -190h-167z" />
<glyph unicode="&#xda;" horiz-adv-x="1244" d="M34 1365h472l-136 -133v-654l2 -154q0 -149 62 -211.5t209 -62.5q162 0 223 95q49 77 49 330l4 647l-156 143h426l-179 -143v-646q0 -178 -11.5 -256t-45.5 -128q-86 -128 -334 -128q-262 0 -366 128q-83 101 -83 387v664zM286 100l8 -4l35 -20q123 -72 316 -72 q276 0 366 174q48 94 48 378v640l149 122l15 -21l-136 -113v-621q0 -305 -48 -398q-98 -188 -383 -188q-246 0 -370 123zM421 472v750l113 110l14 -21l-98 -99v-743l-1 -69l31 -127q23 -38 87 -92l2 -9q-84 34 -116 99t-32 201zM609 1566l147 198h203l-244 -198h-106z M629 1510h123l246 199l19 -24l-251 -203h-113z" />
<glyph unicode="&#xdb;" horiz-adv-x="1244" d="M34 1365h472l-136 -133v-654l2 -154q0 -149 62 -211.5t209 -62.5q162 0 223 95q49 77 49 330l4 647l-156 143h426l-179 -143v-646q0 -178 -11.5 -256t-45.5 -128q-86 -128 -334 -128q-262 0 -366 128q-83 101 -83 387v664zM286 100l8 -4l35 -20q123 -72 316 -72 q276 0 366 174q48 94 48 378v640l149 122l15 -21l-136 -113v-621q0 -305 -48 -398q-98 -188 -383 -188q-246 0 -370 123zM401 1567l169 200h129l172 -200h-161l-63 71l-120 -140h-87l-18 21h96l115 135l-25 29l-101 -116h-106zM421 472v750l113 110l14 -21l-98 -99v-743 l-1 -69l31 -127q23 -38 87 -92l2 -9q-84 34 -116 99t-32 201zM757 1519h199l-173 202l38 -8l186 -215h-232z" />
<glyph unicode="&#xdc;" horiz-adv-x="1244" d="M34 1365h472l-136 -133v-654l2 -154q0 -149 62 -211.5t209 -62.5q162 0 223 95q49 77 49 330l4 647l-156 143h426l-179 -143v-646q0 -178 -11.5 -256t-45.5 -128q-86 -128 -334 -128q-262 0 -366 128q-83 101 -83 387v664zM286 100l8 -4l35 -20q123 -72 316 -72 q276 0 366 174q48 94 48 378v640l149 122l15 -21l-136 -113v-621q0 -305 -48 -398q-98 -188 -383 -188q-246 0 -370 123zM365 1669q0 40 28 68t68 28t68 -28t28 -68t-28 -68t-68 -28t-68 28t-28 68zM421 472v750l113 110l14 -21l-98 -99v-743l-1 -69l31 -127q23 -38 87 -92 l2 -9q-84 34 -116 99t-32 201zM425 1543v7q48 -34 82 -34q49 0 83.5 34.5t34.5 83.5q0 39 -37 88q55 -26 55 -99q0 -54 -35.5 -90.5t-88.5 -36.5q-58 0 -94 47zM713 1669q0 40 28 68t68 28t68 -28t28 -68t-28 -68t-68 -28t-68 28t-28 68zM770 1543v7q48 -34 82 -34 q49 0 84 34.5t35 83.5q0 39 -38 88q56 -25 56 -99q0 -54 -36 -90.5t-88 -36.5q-59 0 -95 47z" />
<glyph unicode="&#xdd;" horiz-adv-x="1314" d="M-48 1365h505l-124 -129l333 -502l32 51l-297 451l105 100l21 -16l-91 -84l277 -427l224 353q97 154 97 230q0 64 -85 146q291 70 478 173l12 6l6 -8l-10 -11q-179 -186 -295 -378q-45 -73 -64 -104l-372 -595v-406l145 -133h-487l144 133v406l-240 369l-52 83 q-71 111 -116.5 162t-134.5 121zM328 27h585l-152 188v399l369 582l58 92q155 247 296 369v-41l-10 -10q-84 -80 -144.5 -160t-179.5 -269l-362 -570v-392l178 -215h-626zM589 1566l147 198h203l-244 -198h-106zM610 1510h123l245 199l19 -24l-251 -203h-113z" />
<glyph unicode="&#xde;" horiz-adv-x="1184" d="M7 369q62 112 196 112h16v759l-139 125h477l-134 -136v-137h52v125l113 111l17 -20l-102 -101v-115h43q272 0 387 -79q146 -99 146 -275q0 -107 -56 -186t-156 -114q-101 -35 -321 -35h-123v-211l118 -110h-461l139 117v128q-13 1 -17 1q-72 0 -138 -31l-9 18 q67 38 120 38h36l8 1v49q-23 3 -31 3q-108 0 -171 -52zM132 27h471l-128 148v178q82 -6 176 -6q252 0 371 90t119 281q0 78 -24 135t-88 132q61 -30 98 -105.5t37 -171.5q0 -217 -159 -312q-123 -72 -416 -72q-51 0 -86 2v-140l157 -186h-501zM423 488h13l26 -1q3 0 13 1 v446h110q114 0 161.5 -22.5t81.5 -93.5q-33 51 -83 71.5t-139 20.5h-103v-422q184 0 269.5 58t85.5 183q0 139 -75.5 201.5t-245.5 62.5q-46 0 -114 -4v-501z" />
<glyph unicode="&#xf7;" horiz-adv-x="1202" d="M153 668v125h815v-125h-815zM187 614h839v124l23 -22v-130h-844zM453 428q0 43 30.5 73.5t73.5 30.5t73.5 -30.5t30.5 -73.5t-30.5 -73.5t-73.5 -30.5t-73.5 30.5t-30.5 73.5zM453 1034q0 43 30.5 73.5t73.5 30.5t73.5 -30.5t30.5 -73.5t-30.5 -73.5t-73.5 -30.5 t-73.5 30.5t-30.5 73.5zM492 303l5 6q53 -30 94 -30q49 0 85 34.5t36 82.5q0 45 -32 91l7 7q51 -41 51 -103q0 -56 -42.5 -98t-99.5 -42q-65 0 -104 52zM492 908l5 6q52 -29 94 -29q49 0 85 34.5t36 82.5q0 45 -32 91l7 6q51 -40 51 -102q0 -56 -42.5 -98t-99.5 -42 q-64 0 -104 51z" />
<glyph unicode="&#x152;" horiz-adv-x="1951" d="M48 716q0 301 150 479t404 178q72 0 142 -17h1059l-16 -19q-103 -127 -162 -287l-15 33q-54 120 -117 155t-226 35l-147 -4l-33 -1v-450h64v398q77 6 145 6q126 0 186 -27t107 -105q-14 10 -20 16q-80 62 -116.5 74.5t-141.5 12.5q-38 0 -114 -4h-21v-371h183l129 177 v-431l-129 167h-272v-562h64v515h217l25 -26h-217v-489q204 0 289.5 29t134.5 114l53 92q3 5 12 21q26 -114 65 -184t127 -159h-1075l-6 -3q-54 -19 -137 -19q-271 0 -431 177.5t-160 478.5zM264 693q0 -548 333 -548q219 0 290 284l2 6q16 80 16 195v138q0 158 -15 243.5 t-54 145.5q-84 130 -233 130q-339 0 -339 -594zM319 97v5q126 -91 322 -91q54 0 92 9l27 6l8 1h1138l34 63q-144 133 -202 284l31 -12q55 -128 187 -256l16 -16l-52 -90h-1163l-7 -1q-76 -16 -124 -16q-161 0 -307 114zM329 670q0 557 292 557q132 0 195 -90 q-110 64 -193 64q-263 0 -263 -517q0 -379 163 -501l-9 -14q-99 71 -142 187t-43 314zM1532 533v442l25 -13v-442zM1664 1032q67 155 174 284l13 -21l-7 -9q-121 -164 -162 -275z" />
<glyph unicode="&#x178;" horiz-adv-x="1314" d="M-48 1365h505l-124 -129l333 -502l32 51l-297 451l105 100l21 -16l-91 -84l277 -427l224 353q97 154 97 230q0 56 -70 132q-39 -28 -78 -28q-59 0 -94 47v6q47 -33 81 -33q49 0 84 34.5t35 83.5q0 38 -38 88q56 -26 56 -99q0 -41 -24 -76q265 67 441 164l12 6l6 -8 l-10 -11q-179 -186 -295 -378q-45 -73 -64 -104l-372 -595v-406l145 -133h-487l144 133v406l-240 369l-52 83q-71 111 -116.5 162t-134.5 121zM328 27h585l-152 188v399l369 582l58 92q155 247 296 369v-41l-10 -10q-84 -80 -144.5 -160t-179.5 -269l-362 -570v-392 l178 -215h-626zM386 1669q0 40 28 68t68 28t68 -28t28 -68t-28 -68t-68 -28t-68 28t-28 68zM446 1543v7q48 -34 82 -34q49 0 84 34.5t35 83.5q0 39 -38 88q56 -26 56 -99q0 -54 -36 -90.5t-88 -36.5q-59 0 -95 47zM734 1669q0 40 28 68t68 28t68 -28t28 -68t-28 -68t-68 -28 t-68 28t-28 68z" />
<glyph unicode="&#x2c6;" d="M209 1567l168 200h130l172 -200h-161l-63 71l-120 -140h-87l-18 21h96l115 135l-26 29l-101 -116h-105zM564 1519h200l-173 202l37 -8l186 -215h-231z" />
<glyph unicode="&#x2dc;" d="M183 1577q0 86 52.5 144t129.5 58q66 0 189 -73q48 -29 76 -29q27 0 45 20.5t18 49.5q0 7 -1 15h74q1 -18 1 -26q0 -72 -45.5 -122.5t-109.5 -50.5q-71 0 -187 58q-66 34 -95 34q-66 0 -76 -78h-71zM213 1526h79q11 56 46 81v-30q-21 -29 -29 -74h-80zM545 1531l13 13 q56 -21 96 -21q148 0 166 199l2 12l20 -18q0 -91 -52.5 -153t-130.5 -62q-50 0 -114 30z" />
<glyph unicode="&#x2000;" horiz-adv-x="909" />
<glyph unicode="&#x2001;" horiz-adv-x="1819" />
<glyph unicode="&#x2002;" horiz-adv-x="909" />
<glyph unicode="&#x2003;" horiz-adv-x="1819" />
<glyph unicode="&#x2004;" horiz-adv-x="606" />
<glyph unicode="&#x2005;" horiz-adv-x="454" />
<glyph unicode="&#x2006;" horiz-adv-x="303" />
<glyph unicode="&#x2007;" horiz-adv-x="303" />
<glyph unicode="&#x2008;" horiz-adv-x="227" />
<glyph unicode="&#x2009;" horiz-adv-x="363" />
<glyph unicode="&#x200a;" horiz-adv-x="101" />
<glyph unicode="&#x2010;" horiz-adv-x="643" d="M0 772h499l43 -118h-500zM85 610h520l-46 137l32 -23l52 -142h-536z" />
<glyph unicode="&#x2011;" horiz-adv-x="643" d="M0 772h499l43 -118h-500zM85 610h520l-46 137l32 -23l52 -142h-536z" />
<glyph unicode="&#x2012;" horiz-adv-x="643" d="M0 772h499l43 -118h-500zM85 610h520l-46 137l32 -23l52 -142h-536z" />
<glyph unicode="&#x2013;" horiz-adv-x="1052" d="M0 772h908l44 -118h-910zM85 610h930l-46 137l32 -23l51 -142h-945z" />
<glyph unicode="&#x2014;" horiz-adv-x="1462" d="M0 772h1318l44 -118h-1320zM85 610h1340l-47 137l33 -23l51 -142h-1355z" />
<glyph unicode="&#x2018;" horiz-adv-x="451" d="M34 1029q0 249 296 344l8 -14l-10 -9q-103 -86 -103 -206q0 -85 53 -148q-12 -5 -18 -7q-113 -41 -196 -98q-30 71 -30 138zM145 874q82 54 164 80l20 7l-4 -1q-72 75 -72 163q0 91 128 194l10 8l21 -21l-11 -8q-116 -92 -116 -172q0 -84 92 -172q-113 -37 -213 -99z" />
<glyph unicode="&#x2019;" horiz-adv-x="451" d="M34 906l10 8q103 87 103 207q0 85 -53 148q12 5 19 7q112 41 195 97q30 -70 30 -137q0 -249 -296 -345zM80 850l17 6q169 68 234 165q66 100 66 204q0 52 -18 132l28 -14q17 -61 17 -111q0 -283 -331 -409z" />
<glyph unicode="&#x201a;" horiz-adv-x="536" d="M34 -164l10 9q103 85 103 206q0 86 -53 149q12 4 19 7q109 40 195 97q30 -70 30 -137q0 -249 -296 -345zM80 -219l17 6q169 67 234 165q66 100 66 204q0 51 -18 131l28 -13q17 -62 17 -111q0 -283 -331 -410z" />
<glyph unicode="&#x201c;" horiz-adv-x="847" d="M34 1029q0 249 296 344l8 -14l-10 -9q-103 -86 -103 -206q0 -85 53 -148q-12 -5 -18 -7q-113 -41 -196 -98q-30 71 -30 138zM145 874q82 54 164 80l20 7l-4 -1q-72 75 -72 163q0 91 128 194l10 8l21 -21l-11 -8q-116 -92 -116 -172q0 -84 92 -172q-113 -37 -213 -99z M430 1029q0 249 296 344l8 -14l-10 -9q-103 -86 -103 -206q0 -85 54 -148q-13 -5 -19 -7q-113 -41 -196 -98q-30 71 -30 138zM541 874q82 54 165 80l19 7l-4 -1q-72 76 -72 163q0 91 128 194l10 8l21 -21l-11 -8q-116 -92 -116 -172q0 -83 92 -172q-112 -37 -213 -99z" />
<glyph unicode="&#x201d;" horiz-adv-x="841" d="M34 906l10 8q103 87 103 207q0 85 -53 148q12 5 19 7q112 41 195 97q30 -70 30 -137q0 -249 -296 -345zM80 850l17 6q169 68 234 165q66 100 66 204q0 52 -18 132l28 -14q17 -61 17 -111q0 -283 -331 -409zM424 906l10 8q103 86 103 207q0 85 -54 148q13 5 19 7 q114 42 196 97q30 -69 30 -137q0 -250 -296 -345zM469 850l17 6q167 66 233 165t66 204q0 52 -17 132l29 -14q16 -59 16 -111q0 -283 -330 -409z" />
<glyph unicode="&#x201e;" horiz-adv-x="841" d="M34 -164l10 9q103 86 103 206q0 86 -53 149q12 4 19 7q112 41 195 97q30 -70 30 -137q0 -250 -296 -345zM80 -220l17 7q169 67 234 165q66 100 66 204q0 51 -18 131l28 -13q17 -61 17 -111q0 -283 -331 -410zM424 -164l10 9q103 85 103 206q0 86 -54 149q13 4 19 7 q114 42 196 97q30 -69 30 -137q0 -251 -296 -345zM469 -220l17 7q167 66 233 165t66 204q0 52 -17 131l29 -13q16 -60 16 -111q0 -284 -330 -410z" />
<glyph unicode="&#x2022;" horiz-adv-x="1365" d="M401 694q0 118 83 201t201 83t201 -83t83 -201t-83 -201t-201 -83t-201 83t-83 201z" />
<glyph unicode="&#x2026;" horiz-adv-x="1638" d="M99 196q0 54 38 92t91 38q54 0 92 -38t38 -92q0 -53 -38 -91t-92 -38q-53 0 -91 38t-38 91zM148 46l7 7q64 -38 116 -38q63 0 107.5 43.5t44.5 103.5q0 57 -40 115l9 7q55 -51 55 -128q0 -68 -50.5 -119t-117.5 -51q-81 0 -131 60zM645 196q0 54 38 92t92 38q53 0 91 -38 t38 -92q0 -53 -38 -91t-91 -38q-54 0 -92 38t-38 91zM694 46l7 7q64 -38 117 -38q62 0 107 43.5t45 103.5q0 57 -40 115l8 7q56 -51 56 -128q0 -68 -51 -119t-118 -51q-81 0 -131 60zM1191 196q0 54 38 92t92 38q53 0 91 -38t38 -92q0 -53 -38 -91t-91 -38q-54 0 -92 38 t-38 91zM1240 46l7 7q64 -38 117 -38q62 0 107 43.5t45 103.5q0 57 -40 115l8 7q56 -52 56 -128q0 -68 -51 -119t-118 -51q-80 0 -131 60z" />
<glyph unicode="&#x202f;" horiz-adv-x="363" />
<glyph unicode="&#x2039;" horiz-adv-x="411" d="M34 677l167 278h86l-109 -278l109 -275h-94zM230 352h116l-114 287l110 270l21 -27l-98 -241l126 -314h-130z" />
<glyph unicode="&#x203a;" horiz-adv-x="423" d="M46 397l108 289l-108 266h94l163 -283l-163 -272h-94zM79 352h95l179 300l-158 276l47 -35l142 -241l-192 -329h-101z" />
<glyph unicode="&#x205f;" horiz-adv-x="454" />
<glyph unicode="&#x20ac;" horiz-adv-x="1202" d="M-3 650h112q-2 36 -2 73q0 32 2 64h-30l-10 26h43q2 23 6 45h-86l-35 92h141q55 195 183 315q142 133 340 133q77 0 201 -42t178 -42q53 0 95 29l16 -9l-11 -19q-102 -177 -156 -314l-9 -23l-13 7q-21 138 -95 227q-85 103 -215 103q-246 0 -304 -365h67q53 309 269 309 q96 0 177 -85v-13q-91 73 -172 73q-197 0 -244 -284h208l32 -92h-347q-5 -59 -5 -122q0 -43 3 -86h67q-3 37 -3 92q0 7 1 35v36h351l-41 105l28 -12l47 -119h-355q-1 -10 -1 -47q0 -54 2 -90h221l32 -92h-340q62 -428 360 -428q290 0 323 361q4 42 34 42q39 0 39 -65 q0 -97 -44 -201q-93 -220 -384 -220q-217 0 -359 126q-129 114 -179 314h-56l-10 26h60q-5 22 -9 45h-88zM395 70v8q128 -84 309 -84q146 0 260 74q118 78 161 214q21 70 31 182l2 23l29 -13q-33 -507 -481 -507q-167 0 -311 103zM419 513h333l-41 105l28 -12l47 -119h-332 q54 -254 205 -315v-10q-98 18 -165 135q-53 91 -75 216zM1012 941l11 25q36 81 88 174l90 160l23 -14l-11 -19q-113 -195 -174 -339z" />
<glyph unicode="&#x2122;" horiz-adv-x="1793" d="M68 1365h722q-6 -10 -8 -13l-40 -68q-16 -27 -39 -90l-2 -3l-5 4l-2 7q-18 64 -50 89t-98 25l-54 -2h-7v-612l70 -61h-273l84 66v548h-12h-31q-55 0 -77.5 -21t-27.5 -76l-22 4l1 8q7 62 37 84.5t107 22.5l25 -1v35q-30 3 -51 3q-84 0 -117.5 -28t-38.5 -102h-8 q-23 72 -80 175zM315 607h287l-80 86v588q24 1 34 1q53 0 75.5 -9.5t35.5 -38.5q-39 28 -84 28q-18 0 -39 -1v-567l98 -107h-307zM732 1166l2 5q46 117 86 162l3 4l19 -16q-47 -56 -87 -164l-2 -6zM792 641l12 7q69 37 89 70.5t20 109.5v467l-79 70h311l-87 -74l169 -472 l22 56l-147 408l79 54l19 -14l-75 -49l136 -369l148 386l-73 74h304l-82 -78v-580l74 -66h-276l83 66v366l-176 -486h-58l-11 20h52l193 521v94l-223 -580h-42l-157 436v-279q0 -89 33 -126l23 -24l59 -62h-321l-18 20h296l-29 34h-268zM961 827q0 -93 19 -128t78 -51l-5 8 q-58 40 -58 111v41v334l-34 90v-405zM1391 607h290l-83 89v585l70 46l20 -14l-68 -46v-568l104 -112h-318z" />
<glyph unicode="&#xe000;" horiz-adv-x="1365" d="M0 0v1365h1365v-1365h-1365z" />
</font>
</defs>
</svg>
